Tags
Language
Tags
June 2024
Su Mo Tu We Th Fr Sa
26 27 28 29 30 31 1
2 3 4 5 6 7 8
9 10 11 12 13 14 15
16 17 18 19 20 21 22
23 24 25 26 27 28 29
30 1 2 3 4 5 6

Roger Waters - Us + Them (2020) [Blu-ray & BDRip, 1080p]

Posted By: v3122
Roger Waters - Us + Them (2020) [Blu-ray & BDRip, 1080p]

Roger Waters - Us + Them (2020) [Blu-ray & BDRip, 1080p]
Blu-ray: MPEG-4 AVC, 1920x1080, 24 fps, 25.991 kbps
LPCM, 48,0 kHz, 2 ch / TrueHD/Atmos 48,0 KHz, 8 ch / TrueHD 48,0 KHz, 6 ch
BDRip: AVC, 1920x800 (2.40:1), 24.000 fps, 8 000 kb/s
FLAC, 48.0 kHz, 2 ch, 1 548 kb/s / E-AC-3, 48.0 kHz, 8 ch, 1 536 kb/s
Progressive Rock | 01:59:26+00:28:26 | ~ 42.31 or 10.65 Gb

~ Concerts filmed & recorded at The Ziggo Dome, Amsterdam, The Netherlands ~

ROGER WATERS: US + THEM, chronicles the acclaimed 2017-2018 tour of the iconic Pink Floyd artist. As the founding member, lyricist, composer and creative force behind Pink Floyd, US + THEM presents Waters powerful music in stunning form and highlights its' message of human rights, liberty and love. Based around his acclaimed, sold-out US + THEM worldwide tour of 2017-18, comprising a total of 156 shows to 2.3 million people across the globe, it features classic songs from The Dark Side of the Moon, The Wall, Animals, Wish You Were Here as well as his most recent album, Is This The Life We Really Want? Waters powerfully demonstrates that he is at heart, a musical activist and one of the most passionate political commentators of his time. He has dedicated his life to fighting against those who seek to control our lives and destroy our planet. Welcome To The Machine and Another Brick In The Wall Part II, are a stark reminder of the bleak warnings that he gave decades ago about alienation, displacement, greed, suffering, destruction and loss. And yet the humanity of the songwriter cannot be more plainly seen than in Wish You Were Here, because, although he presents a grim picture of the state of the world, ultimately his message is one of hope through unity and love.

~ amazon
Roger Waters - Us + Them (2020) [Blu-ray & BDRip, 1080p]:

Tracklist:

1. Intro
2. Speak To Me
3. Breathe
4. One of These Days
5. Time
6. Breathe (Reprise)
7. The Great Gig in the Sky
8. Welcome to the Machine
9. Déjà Vu
10. The Last Refugee
11. Picture That
12. Wish You Were Here
13. The Happiest Days of Our Lives
14. Another Brick in the Wall Part 2
15. Another Brick in the Wall Part 3
16. Deployment
17. Dogs
18. Pigs (Three Different Ones)
19. Money
20. Us & Them
21. Brain Damage
22. Eclipse
23. Roger Addresses Audience
24. Credits / Last Refugee (Reprise)
25. Credits / Déjà Vu (Reprise)

Bonus Features:
1. Fleeting Glimpse
2. Comfortably Numb
3. Smell the Roses

Disc Title: Roger Waters - Us + Them
Disc Size: 44 701 153 215 bytes
Protection: AACS
BD-Java: Yes
BDInfo: 0.7.3.3

Notes:

BDINFO HOME:
Cinema Squid
http://www.cinemasquid.com/blu-ray/tools/bdinfo

INCLUDES FORUMS REPORT FOR:
AVS Forum Blu-ray Audio and Video Specifications Thread
http://www.avsforum.com/avs-vb/showthread.php?t=1155731

WARNING: Report is incomplete because: Scan has not been run.

********************
PLAYLIST: 00020.MPLS
********************

<–- BEGIN FORUMS PASTE –->
                                                                                                                Total   Video                                             
Title                                                           Codec   Length  Movie Size      Disc Size       Bitrate Bitrate Main Audio Track                          Secondary Audio Track
-----                                                           ------  ------- --------------  --------------  ------- ------- ------------------                        ---------------------
00020.MPLS                                                      AVC     1:59:26 0               44 701 153 215  0,00    0,00    LPCM 2.0 2304Kbps (48kHz/24-bit)          Dolby TrueHD 7.1 (48kHz/24-bit)


DISC INFO:

Disc Title:     Roger Waters - Us + Them
Disc Size:      44 701 153 215 bytes
Protection:     AACS
BD-Java:        Yes
BDInfo:         0.7.3.3

PLAYLIST REPORT:

Name:                   00020.MPLS
Length:                 1:59:26.125 (h:m:s.ms)
Size:                   0 bytes
Total Bitrate:          0,00 Mbps

VIDEO:

Codec                   Bitrate             Description     
-----                   -------             -----------     
MPEG-4 AVC Video        0 kbps              1080p / 24 fps / 16:9 / High Profile 4.1

AUDIO:

Codec                           Language        Bitrate         Description     
-----                           --------        -------         -----------     
LPCM Audio                      English         2304 kbps       2.0 / 48 kHz / 2304 kbps / 24-bit
Dolby TrueHD + Atmos            English         0 kbps          7.1 / 48 kHz / 24-bit (AC3 Embedded: 5.1 / 48 kHz / 640 kbps)
Dolby TrueHD Audio              English         0 kbps          5.1 / 48 kHz / 24-bit (AC3 Embedded: 5.1 / 48 kHz / 640 kbps)

SUBTITLES:

Codec                           Language        Bitrate         Description     
-----                           --------        -------         -----------     
Presentation Graphics           English         0,000 kbps                      
Presentation Graphics           German          0,000 kbps                      
Presentation Graphics           French          0,000 kbps                      
Presentation Graphics           Italian         0,000 kbps                      
Presentation Graphics           Spanish         0,000 kbps                      
Presentation Graphics           Dutch           0,000 kbps                      
Presentation Graphics           Portuguese      0,000 kbps                      

FILES:

Name            Time In         Length          Size            Total Bitrate   
----            -------         ------          ----            -------------   
00006.M2TS      0:00:00.000     1:59:25.125     0               0               
00002.M2TS      1:59:25.125     0:00:01.000     0               0               

CHAPTERS:

Number          Time In         Length          Avg Video Rate  Max 1-Sec Rate  Max 1-Sec Time  Max 5-Sec Rate  Max 5-Sec Time  Max 10Sec Rate  Max 10Sec Time  Avg Frame Size  Max Frame Size  Max Frame Time  
------          -------         ------          --------------  --------------  --------------  --------------  --------------  --------------  --------------  --------------  --------------  --------------  
1               0:00:00.000     0:01:42.375     0 kbps          0 kbps          00:00:00.000    0 kbps          00:00:00.000    0 kbps          00:00:00.000    0 bytes         0 bytes         00:00:00.000    
2               0:01:42.375     0:00:32.916     0 kbps          0 kbps          00:00:00.000    0 kbps          00:00:00.000    0 kbps          00:00:00.000    0 bytes         0 bytes         00:00:00.000    
3               0:02:15.291     0:02:44.125     0 kbps          0 kbps          00:00:00.000    0 kbps          00:00:00.000    0 kbps          00:00:00.000    0 bytes         0 bytes         00:00:00.000    
4               0:04:59.416     0:05:27.625     0 kbps          0 kbps          00:00:00.000    0 kbps          00:00:00.000    0 kbps          00:00:00.000    0 bytes         0 bytes         00:00:00.000    
5               0:10:27.041     0:05:54.541     0 kbps          0 kbps          00:00:00.000    0 kbps          00:00:00.000    0 kbps          00:00:00.000    0 bytes         0 bytes         00:00:00.000    
6               0:16:21.583     0:01:09.333     0 kbps          0 kbps          00:00:00.000    0 kbps          00:00:00.000    0 kbps          00:00:00.000    0 bytes         0 bytes         00:00:00.000    
7               0:17:30.916     0:04:59.625     0 kbps          0 kbps          00:00:00.000    0 kbps          00:00:00.000    0 kbps          00:00:00.000    0 bytes         0 bytes         00:00:00.000    
8               0:22:30.541     0:06:56.208     0 kbps          0 kbps          00:00:00.000    0 kbps          00:00:00.000    0 kbps          00:00:00.000    0 bytes         0 bytes         00:00:00.000    
9               0:29:26.750     0:05:48.791     0 kbps          0 kbps          00:00:00.000    0 kbps          00:00:00.000    0 kbps          00:00:00.000    0 bytes         0 bytes         00:00:00.000    
10              0:35:15.541     0:04:07.458     0 kbps          0 kbps          00:00:00.000    0 kbps          00:00:00.000    0 kbps          00:00:00.000    0 bytes         0 bytes         00:00:00.000    
11              0:39:23.000     0:07:02.583     0 kbps          0 kbps          00:00:00.000    0 kbps          00:00:00.000    0 kbps          00:00:00.000    0 bytes         0 bytes         00:00:00.000    
12              0:46:25.583     0:04:56.666     0 kbps          0 kbps          00:00:00.000    0 kbps          00:00:00.000    0 kbps          00:00:00.000    0 bytes         0 bytes         00:00:00.000    
13              0:51:22.250     0:01:58.833     0 kbps          0 kbps          00:00:00.000    0 kbps          00:00:00.000    0 kbps          00:00:00.000    0 bytes         0 bytes         00:00:00.000    
14              0:53:21.083     0:03:18.916     0 kbps          0 kbps          00:00:00.000    0 kbps          00:00:00.000    0 kbps          00:00:00.000    0 bytes         0 bytes         00:00:00.000    
15              0:56:40.000     0:01:35.000     0 kbps          0 kbps          00:00:00.000    0 kbps          00:00:00.000    0 kbps          00:00:00.000    0 bytes         0 bytes         00:00:00.000    
16              0:58:15.000     0:02:05.416     0 kbps          0 kbps          00:00:00.000    0 kbps          00:00:00.000    0 kbps          00:00:00.000    0 bytes         0 bytes         00:00:00.000    
17              1:00:20.416     0:15:57.583     0 kbps          0 kbps          00:00:00.000    0 kbps          00:00:00.000    0 kbps          00:00:00.000    0 bytes         0 bytes         00:00:00.000    
18              1:16:18.000     0:11:35.958     0 kbps          0 kbps          00:00:00.000    0 kbps          00:00:00.000    0 kbps          00:00:00.000    0 bytes         0 bytes         00:00:00.000    
19              1:27:53.958     0:07:23.666     0 kbps          0 kbps          00:00:00.000    0 kbps          00:00:00.000    0 kbps          00:00:00.000    0 bytes         0 bytes         00:00:00.000    
20              1:35:17.625     0:07:46.333     0 kbps          0 kbps          00:00:00.000    0 kbps          00:00:00.000    0 kbps          00:00:00.000    0 bytes         0 bytes         00:00:00.000    
21              1:43:03.958     0:04:33.500     0 kbps          0 kbps          00:00:00.000    0 kbps          00:00:00.000    0 kbps          00:00:00.000    0 bytes         0 bytes         00:00:00.000    
22              1:47:37.458     0:03:24.541     0 kbps          0 kbps          00:00:00.000    0 kbps          00:00:00.000    0 kbps          00:00:00.000    0 bytes         0 bytes         00:00:00.000    
23              1:51:02.000     0:01:12.583     0 kbps          0 kbps          00:00:00.000    0 kbps          00:00:00.000    0 kbps          00:00:00.000    0 bytes         0 bytes         00:00:00.000    
24              1:52:14.583     0:01:30.833     0 kbps          0 kbps          00:00:00.000    0 kbps          00:00:00.000    0 kbps          00:00:00.000    0 bytes         0 bytes         00:00:00.000    
25              1:53:45.416     0:05:40.708     0 kbps          0 kbps          00:00:00.000    0 kbps          00:00:00.000    0 kbps          00:00:00.000    0 bytes         0 bytes         00:00:00.000    

STREAM DIAGNOSTICS:

File            PID             Type            Codec           Language                Seconds                 Bitrate                 Bytes           Packets         
----            ---             ----            -----           --------                --------------          --------------          -------------   -----           
00006.M2TS      4113 (0x1011)   0x1B            AVC                                     0                       0                       0               0               
00006.M2TS      4352 (0x1100)   0x80            LPCM            eng (English)           0                       0                       0               0               
00006.M2TS      4353 (0x1101)   0x83            TrueHD          eng (English)           0                       0                       0               0               
00006.M2TS      4354 (0x1102)   0x83            TrueHD          eng (English)           0                       0                       0               0               
00006.M2TS      4608 (0x1200)   0x90            PGS             eng (English)           0                       0                       0               0               
00006.M2TS      4609 (0x1201)   0x90            PGS             deu (German)            0                       0                       0               0               
00006.M2TS      4610 (0x1202)   0x90            PGS             fra (French)            0                       0                       0               0               
00006.M2TS      4611 (0x1203)   0x90            PGS             ita (Italian)           0                       0                       0               0               
00006.M2TS      4612 (0x1204)   0x90            PGS             spa (Spanish)           0                       0                       0               0               
00006.M2TS      4613 (0x1205)   0x90            PGS             nld (Dutch)             0                       0                       0               0               
00006.M2TS      4614 (0x1206)   0x90            PGS             por (Portuguese)        0                       0                       0               0               
00002.M2TS      4113 (0x1011)   0x1B            AVC                                     0                       0                       0               0               

<–– END FORUMS PASTE ––>

QUICK SUMMARY:

Disc Title: Roger Waters - Us + Them
Disc Size: 44 701 153 215 bytes
Protection: AACS
BD-Java: Yes
Playlist: 00020.MPLS
Size: 0 bytes
Length: 1:59:26.125
Total Bitrate: 0,00 Mbps
Video: MPEG-4 AVC Video / 0 kbps / 1080p / 24 fps / 16:9 / High Profile 4.1
Audio: English / LPCM Audio / 2.0 / 48 kHz / 2304 kbps / 24-bit
Audio: English / Dolby TrueHD + Atmos / 7.1 / 48 kHz / 24-bit (AC3 Embedded: 5.1 / 48 kHz / 640 kbps)
Audio: English / Dolby TrueHD Audio / 5.1 / 48 kHz / 24-bit (AC3 Embedded: 5.1 / 48 kHz / 640 kbps)
Subtitle: English / 0,000 kbps
Subtitle: German / 0,000 kbps
Subtitle: French / 0,000 kbps
Subtitle: Italian / 0,000 kbps
Subtitle: Spanish / 0,000 kbps
Subtitle: Dutch / 0,000 kbps
Subtitle: Portuguese / 0,000 kbps


********************
PLAYLIST: 00031.MPLS
********************

<–- BEGIN FORUMS PASTE –->
                                                                                                                Total   Video                                             
Title                                                           Codec   Length  Movie Size      Disc Size       Bitrate Bitrate Main Audio Track                          Secondary Audio Track
-----                                                           ------  ------- --------------  --------------  ------- ------- ------------------                        ---------------------
00031.MPLS                                                      AVC     0:15:03 0               44 701 153 215  0,00    0,00    LPCM 2.0 2304Kbps (48kHz/24-bit)          Dolby TrueHD 5.1 (48kHz/24-bit)


DISC INFO:

Disc Title:     Roger Waters - Us + Them
Disc Size:      44 701 153 215 bytes
Protection:     AACS
BD-Java:        Yes
BDInfo:         0.7.3.3

PLAYLIST REPORT:

Name:                   00031.MPLS
Length:                 0:15:03.083 (h:m:s.ms)
Size:                   0 bytes
Total Bitrate:          0,00 Mbps

VIDEO:

Codec                   Bitrate             Description     
-----                   -------             -----------     
MPEG-4 AVC Video        0 kbps              1080p / 24 fps / 16:9 / High Profile 4.1

AUDIO:

Codec                           Language        Bitrate         Description     
-----                           --------        -------         -----------     
LPCM Audio                      English         2304 kbps       2.0 / 48 kHz / 2304 kbps / 24-bit
Dolby TrueHD Audio              English         0 kbps          5.1 / 48 kHz / 24-bit (AC3 Embedded: 5.1 / 48 kHz / 640 kbps)

SUBTITLES:

Codec                           Language        Bitrate         Description     
-----                           --------        -------         -----------     
Presentation Graphics           English         0,000 kbps                      
Presentation Graphics           German          0,000 kbps                      
Presentation Graphics           French          0,000 kbps                      
Presentation Graphics           Italian         0,000 kbps                      
Presentation Graphics           Spanish         0,000 kbps                      
Presentation Graphics           Dutch           0,000 kbps                      
Presentation Graphics           Portuguese      0,000 kbps                      

FILES:

Name            Time In         Length          Size            Total Bitrate   
----            -------         ------          ----            -------------   
00003.M2TS      0:00:00.000     0:15:02.083     0               0               
00002.M2TS      0:15:02.083     0:00:01.000     0               0               

CHAPTERS:

Number          Time In         Length          Avg Video Rate  Max 1-Sec Rate  Max 1-Sec Time  Max 5-Sec Rate  Max 5-Sec Time  Max 10Sec Rate  Max 10Sec Time  Avg Frame Size  Max Frame Size  Max Frame Time  
------          -------         ------          --------------  --------------  --------------  --------------  --------------  --------------  --------------  --------------  --------------  --------------  
1               0:00:00.000     0:15:03.083     0 kbps          0 kbps          00:00:00.000    0 kbps          00:00:00.000    0 kbps          00:00:00.000    0 bytes         0 bytes         00:00:00.000    

STREAM DIAGNOSTICS:

File            PID             Type            Codec           Language                Seconds                 Bitrate                 Bytes           Packets         
----            ---             ----            -----           --------                --------------          --------------          -------------   -----           
00003.M2TS      4113 (0x1011)   0x1B            AVC                                     0                       0                       0               0               
00003.M2TS      4352 (0x1100)   0x80            LPCM            eng (English)           0                       0                       0               0               
00003.M2TS      4353 (0x1101)   0x83            TrueHD          eng (English)           0                       0                       0               0               
00003.M2TS      4608 (0x1200)   0x90            PGS             eng (English)           0                       0                       0               0               
00003.M2TS      4609 (0x1201)   0x90            PGS             deu (German)            0                       0                       0               0               
00003.M2TS      4610 (0x1202)   0x90            PGS             fra (French)            0                       0                       0               0               
00003.M2TS      4611 (0x1203)   0x90            PGS             ita (Italian)           0                       0                       0               0               
00003.M2TS      4612 (0x1204)   0x90            PGS             spa (Spanish)           0                       0                       0               0               
00003.M2TS      4613 (0x1205)   0x90            PGS             nld (Dutch)             0                       0                       0               0               
00003.M2TS      4614 (0x1206)   0x90            PGS             por (Portuguese)        0                       0                       0               0               
00002.M2TS      4113 (0x1011)   0x1B            AVC                                     0                       0                       0               0               

<–– END FORUMS PASTE ––>

QUICK SUMMARY:

Disc Title: Roger Waters - Us + Them
Disc Size: 44 701 153 215 bytes
Protection: AACS
BD-Java: Yes
Playlist: 00031.MPLS
Size: 0 bytes
Length: 0:15:03.083
Total Bitrate: 0,00 Mbps
Video: MPEG-4 AVC Video / 0 kbps / 1080p / 24 fps / 16:9 / High Profile 4.1
Audio: English / LPCM Audio / 2.0 / 48 kHz / 2304 kbps / 24-bit
Audio: English / Dolby TrueHD Audio / 5.1 / 48 kHz / 24-bit (AC3 Embedded: 5.1 / 48 kHz / 640 kbps)
Subtitle: English / 0,000 kbps
Subtitle: German / 0,000 kbps
Subtitle: French / 0,000 kbps
Subtitle: Italian / 0,000 kbps
Subtitle: Spanish / 0,000 kbps
Subtitle: Dutch / 0,000 kbps
Subtitle: Portuguese / 0,000 kbps


********************
PLAYLIST: 00033.MPLS
********************

<–- BEGIN FORUMS PASTE –->
                                                                                                                Total   Video                                             
Title                                                           Codec   Length  Movie Size      Disc Size       Bitrate Bitrate Main Audio Track                          Secondary Audio Track
-----                                                           ------  ------- --------------  --------------  ------- ------- ------------------                        ---------------------
00033.MPLS                                                      AVC     0:07:39 0               44 701 153 215  0,00    0,00    LPCM 2.0 1536Kbps (48kHz/16-bit)          


DISC INFO:

Disc Title:     Roger Waters - Us + Them
Disc Size:      44 701 153 215 bytes
Protection:     AACS
BD-Java:        Yes
BDInfo:         0.7.3.3

PLAYLIST REPORT:

Name:                   00033.MPLS
Length:                 0:07:39.833 (h:m:s.ms)
Size:                   0 bytes
Total Bitrate:          0,00 Mbps

VIDEO:

Codec                   Bitrate             Description     
-----                   -------             -----------     
MPEG-4 AVC Video        0 kbps              1080p / 24 fps / 16:9 / High Profile 4.1

AUDIO:

Codec                           Language        Bitrate         Description     
-----                           --------        -------         -----------     
LPCM Audio                      English         1536 kbps       2.0 / 48 kHz / 1536 kbps / 16-bit

FILES:

Name            Time In         Length          Size            Total Bitrate   
----            -------         ------          ----            -------------   
00004.M2TS      0:00:00.000     0:07:38.833     0               0               
00002.M2TS      0:07:38.833     0:00:01.000     0               0               

CHAPTERS:

Number          Time In         Length          Avg Video Rate  Max 1-Sec Rate  Max 1-Sec Time  Max 5-Sec Rate  Max 5-Sec Time  Max 10Sec Rate  Max 10Sec Time  Avg Frame Size  Max Frame Size  Max Frame Time  
------          -------         ------          --------------  --------------  --------------  --------------  --------------  --------------  --------------  --------------  --------------  --------------  
1               0:00:00.000     0:07:39.833     0 kbps          0 kbps          00:00:00.000    0 kbps          00:00:00.000    0 kbps          00:00:00.000    0 bytes         0 bytes         00:00:00.000    

STREAM DIAGNOSTICS:

File            PID             Type            Codec           Language                Seconds                 Bitrate                 Bytes           Packets         
----            ---             ----            -----           --------                --------------          --------------          -------------   -----           
00004.M2TS      4113 (0x1011)   0x1B            AVC                                     0                       0                       0               0               
00004.M2TS      4352 (0x1100)   0x80            LPCM            eng (English)           0                       0                       0               0               
00002.M2TS      4113 (0x1011)   0x1B            AVC                                     0                       0                       0               0               

<–– END FORUMS PASTE ––>

QUICK SUMMARY:

Disc Title: Roger Waters - Us + Them
Disc Size: 44 701 153 215 bytes
Protection: AACS
BD-Java: Yes
Playlist: 00033.MPLS
Size: 0 bytes
Length: 0:07:39.833
Total Bitrate: 0,00 Mbps
Video: MPEG-4 AVC Video / 0 kbps / 1080p / 24 fps / 16:9 / High Profile 4.1
Audio: English / LPCM Audio / 2.0 / 48 kHz / 1536 kbps / 16-bit


********************
PLAYLIST: 00032.MPLS
********************

<–- BEGIN FORUMS PASTE –->
                                                                                                                Total   Video                                             
Title                                                           Codec   Length  Movie Size      Disc Size       Bitrate Bitrate Main Audio Track                          Secondary Audio Track
-----                                                           ------  ------- --------------  --------------  ------- ------- ------------------                        ---------------------
00032.MPLS                                                      AVC     0:05:44 0               44 701 153 215  0,00    0,00    LPCM 2.0 1536Kbps (48kHz/16-bit)          


DISC INFO:

Disc Title:     Roger Waters - Us + Them
Disc Size:      44 701 153 215 bytes
Protection:     AACS
BD-Java:        Yes
BDInfo:         0.7.3.3

PLAYLIST REPORT:

Name:                   00032.MPLS
Length:                 0:05:44.041 (h:m:s.ms)
Size:                   0 bytes
Total Bitrate:          0,00 Mbps

VIDEO:

Codec                   Bitrate             Description     
-----                   -------             -----------     
MPEG-4 AVC Video        0 kbps              1080p / 24 fps / 16:9 / High Profile 4.1

AUDIO:

Codec                           Language        Bitrate         Description     
-----                           --------        -------         -----------     
LPCM Audio                      English         1536 kbps       2.0 / 48 kHz / 1536 kbps / 16-bit

FILES:

Name            Time In         Length          Size            Total Bitrate   
----            -------         ------          ----            -------------   
00005.M2TS      0:00:00.000     0:05:43.041     0               0               
00002.M2TS      0:05:43.041     0:00:01.000     0               0               

CHAPTERS:

Number          Time In         Length          Avg Video Rate  Max 1-Sec Rate  Max 1-Sec Time  Max 5-Sec Rate  Max 5-Sec Time  Max 10Sec Rate  Max 10Sec Time  Avg Frame Size  Max Frame Size  Max Frame Time  
------          -------         ------          --------------  --------------  --------------  --------------  --------------  --------------  --------------  --------------  --------------  --------------  
1               0:00:00.000     0:05:44.041     0 kbps          0 kbps          00:00:00.000    0 kbps          00:00:00.000    0 kbps          00:00:00.000    0 bytes         0 bytes         00:00:00.000    

STREAM DIAGNOSTICS:

File            PID             Type            Codec           Language                Seconds                 Bitrate                 Bytes           Packets         
----            ---             ----            -----           --------                --------------          --------------          -------------   -----           
00005.M2TS      4113 (0x1011)   0x1B            AVC                                     0                       0                       0               0               
00005.M2TS      4352 (0x1100)   0x80            LPCM            eng (English)           0                       0                       0               0               
00002.M2TS      4113 (0x1011)   0x1B            AVC                                     0                       0                       0               0               

<–– END FORUMS PASTE ––>

QUICK SUMMARY:

Disc Title: Roger Waters - Us + Them
Disc Size: 44 701 153 215 bytes
Protection: AACS
BD-Java: Yes
Playlist: 00032.MPLS
Size: 0 bytes
Length: 0:05:44.041
Total Bitrate: 0,00 Mbps
Video: MPEG-4 AVC Video / 0 kbps / 1080p / 24 fps / 16:9 / High Profile 4.1
Audio: English / LPCM Audio / 2.0 / 48 kHz / 1536 kbps / 16-bit


********************
PLAYLIST: 00021.MPLS
********************

<–- BEGIN FORUMS PASTE –->
                                                                                                                Total   Video                                             
Title                                                           Codec   Length  Movie Size      Disc Size       Bitrate Bitrate Main Audio Track                          Secondary Audio Track
-----                                                           ------  ------- --------------  --------------  ------- ------- ------------------                        ---------------------
00021.MPLS                                                      AVC     0:00:35 0               44 701 153 215  0,00    0,00                                              


DISC INFO:

Disc Title:     Roger Waters - Us + Them
Disc Size:      44 701 153 215 bytes
Protection:     AACS
BD-Java:        Yes
BDInfo:         0.7.3.3

PLAYLIST REPORT:

Name:                   00021.MPLS
Length:                 0:00:35.118 (h:m:s.ms)
Size:                   0 bytes
Total Bitrate:          0,00 Mbps

VIDEO:

Codec                   Bitrate             Description     
-----                   -------             -----------     
MPEG-4 AVC Video        0 kbps              1080p / 23,976 fps / 16:9 / High Profile 4.1

FILES:

Name            Time In         Length          Size            Total Bitrate   
----            -------         ------          ----            -------------   
00001.M2TS      0:00:00.000     0:00:34.117     0               0               
00000.M2TS      0:00:34.117     0:00:01.000     0               0               

CHAPTERS:

Number          Time In         Length          Avg Video Rate  Max 1-Sec Rate  Max 1-Sec Time  Max 5-Sec Rate  Max 5-Sec Time  Max 10Sec Rate  Max 10Sec Time  Avg Frame Size  Max Frame Size  Max Frame Time  
------          -------         ------          --------------  --------------  --------------  --------------  --------------  --------------  --------------  --------------  --------------  --------------  
1               0:00:00.000     0:00:34.117     0 kbps          0 kbps          00:00:00.000    0 kbps          00:00:00.000    0 kbps          00:00:00.000    0 bytes         0 bytes         00:00:00.000    
2               0:00:34.117     0:00:01.000     0 kbps          0 kbps          00:00:00.000    0 kbps          00:00:00.000    0 kbps          00:00:00.000    0 bytes         0 bytes         00:00:00.000    

STREAM DIAGNOSTICS:

File            PID             Type            Codec           Language                Seconds                 Bitrate                 Bytes           Packets         
----            ---             ----            -----           --------                --------------          --------------          -------------   -----           
00001.M2TS      4113 (0x1011)   0x1B            AVC                                     0                       0                       0               0               
00000.M2TS      4113 (0x1011)   0x1B            AVC                                     0                       0                       0               0               

<–– END FORUMS PASTE ––>

QUICK SUMMARY:

Disc Title: Roger Waters - Us + Them
Disc Size: 44 701 153 215 bytes
Protection: AACS
BD-Java: Yes
Playlist: 00021.MPLS
Size: 0 bytes
Length: 0:00:35.118
Total Bitrate: 0,00 Mbps
Video: MPEG-4 AVC Video / 0 kbps / 1080p / 23,976 fps / 16:9 / High Profile 4.1



General
Unique ID : 323184699074158010648732822107174056580 (0xF3231BE43E57F077056B0D8E7B09B284)
Complete name : D:\TR\Roger Waters - Us + Them.BDRip1080p.mkv
Format : Matroska
Format version : Version 4 / Version 2
File size : 9.75 GiB
Duration : 1h 59mn
Overall bit rate mode : Variable
Overall bit rate : 11.7 Mbps
Movie name : Roger Waters - Us + Them.BDRip1080p @ rutracker.org
Encoded date : UTC 2020-10-05 12:46:01
Writing application : mkvmerge v50.0.0 ('Awakenings') 64-bit
Writing library : libebml v1.4.0 + libmatroska v1.6.2
DURATION : 01:59:25.125000000
NUMBER_OF_FRAMES : 171963
NUMBER_OF_BYTES : 7160564976
_STATISTICS_WRITING_APP : mkvmerge v50.0.0 ('Awakenings') 64-bit
_STATISTICS_WRITING_DATE_UTC : 2020-10-05 12:46:01
_STATISTICS_TAGS : BPS DURATION NUMBER_OF_FRAMES NUMBER_OF_BYTES

Video
ID : 1
Format : AVC
Format/Info : Advanced Video Codec
Format profile : High@L4.1
Format settings, CABAC : Yes
Format settings, ReFrames : 5 frames
Codec ID : V_MPEG4/ISO/AVC
Duration : 1h 59mn
Nominal bit rate : 8 000 Kbps
Width : 1 920 pixels
Height : 800 pixels
Display aspect ratio : 2.40:1
Frame rate mode : Constant
Frame rate : 24.000 fps
Color space : YUV
Chroma subsampling : 4:2:0
Bit depth : 8 bits
Scan type : Progressive
Bits/(Pixel*Frame) : 0.217
Title : anbelk27 @ rutracker.org
Writing library : x264 core 157 r2969 d4099dd
Encoding settings : cabac=1 / ref=5 / deblock=1:-3:-3 / analyse=0x3:0x133 / me=tesa / subme=11 / psy=1 / psy_rd=1.12:0.10 / mixed_ref=1 / me_range=40 / chroma_me=1 / trellis=2 / 8x8dct=1 / cqm=0 / deadzone=21,11 / fast_pskip=1 / chroma_qp_offset=-3 / threads=12 / lookahead_threads=3 / sliced_threads=0 / nr=0 / decimate=1 / interlaced=0 / bluray_compat=0 / constrained_intra=0 / bframes=10 / b_pyramid=2 / b_adapt=2 / b_bias=0 / direct=3 / weightb=1 / open_gop=0 / weightp=2 / keyint=240 / keyint_min=24 / scenecut=50 / intra_refresh=0 / rc_lookahead=120 / rc=2pass / mbtree=1 / bitrate=8000 / ratetol=1.0 / qcomp=0.60 / qpmin=0 / qpmax=69 / qpstep=4 / cplxblur=20.0 / qblur=0.5 / vbv_maxrate=50000 / vbv_bufsize=62500 / nal_hrd=none / filler=0 / ip_ratio=1.40 / aq=1:1.00
Default : Yes
Forced : No

Audio #1
ID : 2
Format : DTS
Format/Info : Digital Theater Systems
Mode : 16
Format settings, Endianness : Big
Codec ID : A_DTS
Duration : 1h 59mn
Bit rate mode : Constant
Bit rate : 1 509 Kbps
Channel(s) : 6 channels
Channel positions : Front: L C R, Side: L R, LFE
Sampling rate : 48.0 KHz
Bit depth : 16 bits
Compression mode : Lossy
Stream size : 1.26 GiB (13%)
Title : DTS 5.1 @ 16 bit
Default : Yes
Forced : No

Audio #2
ID : 3
Format : FLAC
Format/Info : Free Lossless Audio Codec
Codec ID : A_FLAC
Duration : 1h 59mn
Bit rate mode : Variable
Channel(s) : 2 channels
Sampling rate : 48.0 KHz
Bit depth : 24 bits
Title : FLAC 2.0 @ 24 bit
Writing library : libFLAC 1.2.1 (UTC 2007-09-17)
Default : No
Forced : No

Audio #3
ID : 4
Format : AC-3
Format/Info : Audio Coding 3
Mode extension : CM (complete main)
Format settings, Endianness : Big
Codec ID : A_AC3
Duration : 1h 59mn
Bit rate mode : Constant
Bit rate : 640 Kbps
Channel(s) : 6 channels
Channel positions : Front: L C R, Side: L R, LFE
Sampling rate : 48.0 KHz
Bit depth : 16 bits
Compression mode : Lossy
Stream size : 547 MiB (5%)
Title : AC3 5.1 @ 16 bit
Default : No
Forced : No

Menu
00:00:00.000 : en: 1. Intro
00:01:42.375 : en: 2. Speak To Me
00:02:15.291 : en: 3. Breathe
00:04:59.416 : en: 4. One of These Days
00:10:27.041 : en: 5. Time
00:16:21.583 : en: 6. Breathe (Reprise)
00:17:30.916 : en: 7. The Great Gig in the Sky
00:22:30.541 : en: 8. Welcome to the Machine
00:29:26.750 : en: 9. Déjà Vu
00:35:15.541 : en: 10. The Last Refugee
00:39:23.000 : en: 11. Picture That
00:46:25.583 : en: 12. Wish You Were Here
00:51:22.250 : en: 13. The Happiest Days of Our Lives
00:53:21.083 : en: 14. Another Brick in the Wall Part 2
00:56:40.000 : en: 15. Another Brick in the Wall Part 3
00:58:15.000 : en: 16. Deployment
01:00:20.416 : en: 17. Dogs
01:16:18.000 : en: 18. Pigs (Three Different Ones)
01:27:53.958 : en: 19. Money
01:35:17.625 : en: 20. Us & Them
01:43:03.958 : en: 21. Brain Damage
01:47:37.458 : en: 22. Eclipse
01:51:02.000 : en: 23. Roger Adresses Audience
01:52:14.583 : en: 24. Credits / The Last Refugee (Reprise)
01:53:45.416 : en: 25. Credits / Déjà Vu (Reprise)



Roger Waters - Us + Them (2020) [Blu-ray & BDRip, 1080p]

Roger Waters - Us + Them (2020) [Blu-ray & BDRip, 1080p]

Roger Waters - Us + Them (2020) [Blu-ray & BDRip, 1080p]

Roger Waters - Us + Them (2020) [Blu-ray & BDRip, 1080p]

Roger Waters - Us + Them (2020) [Blu-ray & BDRip, 1080p]

All thanks go to the original releaser

Roger Waters in my Blog

Download Roger Waters - Us + Them (2020) [Blu-ray & BDRip, 1080p]: