Subcategories
Tags
Language
Tags

Paul Barnes - The American Virtuoso: Philip Glass, Samuel Barber, Joan Tower (2007) [Re-Up]

Posted By: Designol
Paul Barnes - The American Virtuoso: Philip Glass, Samuel Barber, Joan Tower (2007) [Re-Up]

Paul Barnes - The American Virtuoso: Philip Glass, Samuel Barber, Joan Tower (2007)
EAC | FLAC | Image (Cue&Log) ~ 267 Mb | Scans included | Time: 01:10:54
Classical | Label: Orange Mountain Music | # 0036

The American Virtuoso presents a recital by American pianist Paul Barnes. His third release for Orange Mountain Music, it features piano music by American composers including the world premiere recording of Barnes' transcription of Philip Glass's Piano Concerto No 2 'After Lewis and Clark' - the full version of which he also premiered on OMM in 2006 with the Northwest Chamber Orchestra under Ralf Gothóni. The focus of this first-rate solo recording are Samuel Barber's landmark "Sonata for piano" of 1950, described by Vladimir Horowitz as "the first truly great native work in the form", and his haunting "Ballade" and "Nocturne". And it ends with two colourful contrasting pieces from the mid-1990s by Joan Tower from "No Longer Very Clear", inspired by John Ashberry's eponymous poem.

Glass's Piano Concerto No2 was written to celebrate the 200th anniversary of explorers Lewis and Clark's journey across the American continent. A fortuitous meeting between Barnes and Glass on an airplane in 1995 led to this concerto, eventually composed after OMM's acclaimed 2003 release of the pianist's transcriptions of Glass operas. The opening movement, The Vision, is described by Glass as a "musical steamroller" and depicts the tremendous resolve and energy required by Lewis and Clark for their extraordinary expedition, while the final movement, The Land, is an expansive theme and variations reflecting the great vastness of the land they explored. In between comes the intimate Sacagawea, featuring a traditional Shoshone Indian theme.

Praised by the New York Times for his "Lisztian thunder and deft fluidity" and the San Francisco Chronicle as "ferociously virtuosic," Paul Barnes has electrified audiences with his intensely expressive playing. The Boston Globe praised his playing of the Glass concerto as "strong and sympathetic" while Gramophone remarked that the CD was "certainly one of the most enjoyable recent releases of Glass's music…Paul Barnes is a shining soloist". A renowned player, teacher and lecturer, with particular interests in minimalism and Liszt, he has recently performed in Shanghai, Seoul, Vienna, Moscow, St Petersburg, Greece, Serbia, Minsk, Budapest and in most major US cities.

The jury is still out on Philip Glass' transformation of minimalism into a radically populist language, but his later works continue to be widely performed, and, perhaps more important, to inspire innovative programming strategies. This disc by American pianist and Glass specialist Paul Barnes, released on the Glass-oriented Orange Mountain Music label, avoids the tendency to program Glass with his fellow minimalists. Instead he is juxtaposed with two very different composers, neither of whom has much to do with minimalism – and it turns out that he fits quite well with both. The opening work, Glass' Piano Concerto No. 2 (After Lewis and Clark), has been transcribed for solo piano by Barnes himself. The transcription arguably improves the work, adding a layer of contrasts to the splashy, high-energy tonal color fields of its outer movements. But the real news is that the program places Glass more firmly within the American tradition. Barnes moves smoothly from Glass to the music of twentieth century American music's great conservative, Samuel Barber, with muscular performances of two short pieces and the Beethovenian Piano Sonata, Op. 26; he emphasizes the big blocks of sound in Barber's music and seems to suggest that Barber avoided atavism through an injection of the kind of pure kinetic force that would eventually fascinate Glass. The finale, consisting of a pair of short pieces by Joan Tower, goes in a different direction, focusing on the fact that Tower and Glass share a predilection for the use of small musical cells and a liking for organic metaphors, even if their attitudes toward simplicity and complexity are very different. More broadly, Barnes' disc is one of a group of recent releases that attempts to imagine programs of contemporary, and often specifically contemporary American, music that would please general classical audiences anywhere, something that is more likely to be achieved through imaginative retrospectives that make sense than by wholesale attempts to invent a new musical language. Barnes' big, Lisztian sound adds something to the proceedings on its own. Especially recommended not only to Glass fans, but also to those involved in any way with concert programming, and not only for the piano.

Review by James Manheim, Allmusic.com

Paul Barnes - The American Virtuoso: Philip Glass, Samuel Barber, Joan Tower (2007) [Re-Up]



Tracklist:

Philip Glass
Piano Concerto No.2
01. I. The Vision (11:39)
02. II. Sacagawea (10:12)
03. III. The Land (08:55)

Samuel Barber
04. Nocturne, Op.33 (03:57)
05. Ballade, Op.46 (06:58)
Piano Sonata, Op.26:
06. I. Allegro energico (07:24)
07. II. Allegro vivace e leggero (02:17)
08. III. Adagio mesto (06:34)
09. IV. Fuga: Allegro con spirito (05:13)

Joan Tower
From 'No Longer Very Clear'
10. Holding a Daisy (04:15)
11. Or like a… an engine (03:24)


Exact Audio Copy V1.0 beta 1 from 15. November 2010

EAC extraction logfile from 20. August 2011, 10:21

Paul Barnes / The American Virtuoso

Used drive : Optiarc DVD RW AD-7203A Adapter: 4 ID: 1

Read mode : Secure
Utilize accurate stream : Yes
Defeat audio cache : Yes
Make use of C2 pointers : No

Read offset correction : 48
Overread into Lead-In and Lead-Out : No
Fill up missing offset samples with silence : Yes
Delete leading and trailing silent blocks : No
Null samples used in CRC calculations : Yes
Used interface : Native Win32 interface for Win NT & 2000

Used output format : User Defined Encoder
Selected bitrate : 128 kBit/s
Quality : High
Add ID3 tag : No
Command line compressor : C:\Program Files\FLAC\flac.exe
Additional command line options : -T "COMMENT=Ripped by GFox" -5 -V %s


TOC of the extracted CD

Track | Start | Length | Start sector | End sector
––––––––––––––––––––––––––––-
1 | 0:00.00 | 11:39.73 | 0 | 52497
2 | 11:39.73 | 10:12.51 | 52498 | 98448
3 | 21:52.49 | 8:55.43 | 98449 | 138616
4 | 30:48.17 | 3:57.09 | 138617 | 156400
5 | 34:45.26 | 6:58.52 | 156401 | 187802
6 | 41:44.03 | 7:24.23 | 187803 | 221125
7 | 49:08.26 | 2:17.18 | 221126 | 231418
8 | 51:25.44 | 6:34.34 | 231419 | 261002
9 | 58:00.03 | 5:13.67 | 261003 | 284544
10 | 63:13.70 | 4:15.65 | 284545 | 303734
11 | 67:29.60 | 3:24.33 | 303735 | 319067


Range status and errors

Selected range

Filename D:\EAC\Paul Barnes - The American Virtuoso.wav

Peak level 100.0 %
Extraction speed 0.1 X
Range quality 100.0 %
Test CRC 34912DC4
Copy CRC 34912DC4
Copy OK

No errors occurred


AccurateRip summary

Track 1 accurately ripped (confidence 2) [5A1FD219]
Track 2 accurately ripped (confidence 2) [C046CB69]
Track 3 accurately ripped (confidence 2) [2B8EF2C5]
Track 4 accurately ripped (confidence 2) [10127D49]
Track 5 accurately ripped (confidence 2) [94A8A872]
Track 6 accurately ripped (confidence 2) [AB61E84A]
Track 7 accurately ripped (confidence 2) [218622CA]
Track 8 accurately ripped (confidence 2) [4D33A129]
Track 9 accurately ripped (confidence 2) [3BD1ECD2]
Track 10 accurately ripped (confidence 2) [0FDABEA6]
Track 11 accurately ripped (confidence 2) [6DE98F81]

All tracks accurately ripped

End of status report

==== Log checksum 0A218624211C6CD09881C989F0EB5CB9189B9F2AFFE99F05222444F31BE6B382 ====

foobar2000 1.2 / Dynamic Range Meter 1.1.1
log date: 2015-03-25 14:01:44

––––––––––––––––––––––––––––––––––––––––
Analyzed: Paul Barnes / The American Virtuoso
––––––––––––––––––––––––––––––––––––––––

DR Peak RMS Duration Track
––––––––––––––––––––––––––––––––––––––––
DR12 0.00 dB -15.52 dB 11:40 01-Glass - Piano Concerto No.2 - I. The Vision
DR14 -1.94 dB -19.90 dB 10:13 02-Glass - Piano Concerto No.2 - II. Sacagawea
DR13 -0.92 dB -18.86 dB 8:56 03-Glass - Piano Concerto No.2 - III. The Land
DR14 0.00 dB -20.34 dB 3:57 04-Barber - Nocturne, Op.33
DR13 0.00 dB -19.76 dB 6:59 05-Barber - Ballade, Op.46
DR14 0.00 dB -17.73 dB 7:24 06-Barber - Piano Sonata, Op.26 - I. Allegro energico
DR12 -4.56 dB -22.41 dB 2:17 07-Barber - Piano Sonata, Op.26 - II. Allegro vivace e leggero
DR15 0.00 dB -21.08 dB 6:34 08-Barber - Piano Sonata, Op.26 - III. Adagio mesto
DR12 0.00 dB -15.51 dB 5:14 09-Barber - Piano Sonata, Op.26 - IV. Fuga: Allegro con spirito
DR11 0.00 dB -17.57 dB 4:16 10-Tower - From 'No Longer Very Clear' - Holding a Daisy
DR12 0.00 dB -16.19 dB 3:24 11-Tower - From 'No Longer Very Clear' - Or like a… an engine
––––––––––––––––––––––––––––––––––––––––

Number of tracks: 11
Official DR value: DR13

Samplerate: 44100 Hz
Channels: 2
Bits per sample: 16
Bitrate: 472 kbps
Codec: FLAC
================================================================================

Paul Barnes - The American Virtuoso: Philip Glass, Samuel Barber, Joan Tower (2007) [Re-Up]

All thanks to original releaser - GFox

More interesting music in My Blog