Subcategories

Pat Metheny Group - Letter From Home (1989) {Geffen}

Posted By: tiburon
Pat Metheny Group - Letter From Home (1989) {Geffen}

Pat Metheny Group - Letter From Home (1989) {Geffen}
EAC 0.99pb4 | FLAC Image level 8 | Cue+Log | Full Scans 300dpi | 403MB + 5% Recovery
MP3 CBR 320 Kbps | 141MB + 5% Recovery
Genre: Fusion, World Fusion
Pat Metheny Group - Letter From Home (1989) {Geffen}

Picking up where Still Life (Talking) leaves off (instead of throwing listeners a curve ball like Song X), the equally triumphant Letter from Home stresses Brazilian elements with superb results. While a number of these treasures including "Beat 70," "Have You Heard," and "Every Summer Night" are light and accessible enough to have enjoyed exposure on some smooth jazz stations, Letter contains the type of depth and honesty that's sorely lacking in most smooth jazz. Metheny has always known the difference between light and lightweight, and even at his most delicate, he avoids entering "Muzak" territory.
Track List
01. Have You Heard 6:25
02. Every Summer Night 7:13
03. Better Days Ahead 3:02
04. Spring Ain't Here 6:55
05. 45/8 0:55
06. 5-5-7 7:55
07. Beat 70 4:52
08. Dream Of The Return 5:25
09. Are We There Yet 7:55
10. Vidala 3:04
11. Slip Away 5:24
12. Letter From Home 2:33

musicians
Pat Metheny - electric and acoustic guitars, 12 string guitar, soprano guitars, tipple, guitar synthesizer, synclavier
Lyle Mays - piano, organ, keyboards, accordion, trumpet and synclavier
Steve Rodby - electric and acoustic basses
Paul Wertico - drums, caja and additional percussion
Armando Marcal - percussion
Pedro Aznar - voice, acoustic guitar, marimba, vibes, tenor sax, charango, melodica, panpipe, additional percussion

Produced by Pat Metheny


Exact Audio Copy V0.99 prebeta 4 from 23. January 2008

EAC extraction logfile from 22. April 2010, 17:40

Pat Metheny Group / Letter From Home (GED 24245)

Used drive : PIONEER DVD-RW DVR-105 Adapter: 0 ID: 1

Read mode : Secure
Utilize accurate stream : Yes
Defeat audio cache : Yes
Make use of C2 pointers : No

Read offset correction : 48
Overread into Lead-In and Lead-Out : No
Fill up missing offset samples with silence : Yes
Delete leading and trailing silent blocks : No
Null samples used in CRC calculations : Yes
Used interface : Installed external ASPI interface

Used output format : User Defined Encoder
Selected bitrate : 768 kBit/s
Quality : High
Add ID3 tag : No
Command line compressor : C:\Program Files\Exact Audio Copy\Flac\flac.exe
Additional command line options : -8 -V -T "ARTIST=%a" -T "TITLE=%t" -T "ALBUM=%g" -T "DATE=%y" -T "TRACKNUMBER=%n" -T "GENRE=%m" -T "COMMENT=%e" %s -o %d


TOC of the extracted CD

Track | Start | Length | Start sector | End sector
––––––––––––––––––––––––––––-
1 | 0:00.33 | 6:25.57 | 33 | 28964
2 | 6:26.15 | 7:13.50 | 28965 | 61489
3 | 13:39.65 | 3:03.00 | 61490 | 75214
4 | 16:42.65 | 6:55.20 | 75215 | 106359
5 | 23:38.10 | 0:57.10 | 106360 | 110644
6 | 24:35.20 | 7:54.53 | 110645 | 146247
7 | 32:29.73 | 4:55.25 | 146248 | 168397
8 | 37:25.23 | 5:26.42 | 168398 | 192889
9 | 42:51.65 | 7:55.28 | 192890 | 228542
10 | 50:47.18 | 3:03.42 | 228543 | 242309
11 | 53:50.60 | 5:25.40 | 242310 | 266724
12 | 59:16.25 | 2:34.58 | 266725 | 278332


Range status and errors

Selected range

Filename C:\Pat Metheny Group . 1989 . Letter From Home (GED 24245)\Pat Metheny Group . 1989 . Letter From Home (GED 24245).wav

Peak level 100.0 %
Range quality 100.0 %
Test CRC 3F876ABA
Copy CRC 3F876ABA
Copy OK

No errors occurred


AccurateRip summary

Track 1 accurately ripped (confidence 26) [A27ACA1E]
Track 2 accurately ripped (confidence 26) [83C4B437]
Track 3 accurately ripped (confidence 26) [EBBCB38E]
Track 4 accurately ripped (confidence 27) [4A743F9B]
Track 5 accurately ripped (confidence 26) [5B55AB86]
Track 6 accurately ripped (confidence 26) [F2BCF5E2]
Track 7 accurately ripped (confidence 26) [8332E1F2]
Track 8 accurately ripped (confidence 26) [ECC748BD]
Track 9 accurately ripped (confidence 26) [7BACA486]
Track 10 accurately ripped (confidence 24) [D5F21D0C]
Track 11 accurately ripped (confidence 24) [FE5BE81B]
Track 12 accurately ripped (confidence 24) [53D913FC]

All tracks accurately ripped

End of status report


––––––––––––––––––––––––––––––––––––––––
Analyzed: Pat Metheny Group / Letter From Home
––––––––––––––––––––––––––––––––––––––––

DR Peak RMS Duration Track
––––––––––––––––––––––––––––––––––––––––
DR14 0.00 dB -16.92 dB 6:26 01-Have You Heard
DR13 0.00 dB -17.72 dB 7:14 02-Every Summer Night
DR12 -1.22 dB -15.74 dB 3:03 03-Better Days Ahead
DR13 -2.56 dB -20.09 dB 6:55 04-Spring Ain't Here
DR11 -4.82 dB -20.67 dB 0:57 05-45/8
DR14 -0.23 dB -17.06 dB 7:55 06-5-5-7
DR12 0.00 dB -15.30 dB 4:55 07-Beat 70
DR13 -0.41 dB -17.35 dB 5:27 08-Dream Of The Return
DR14 0.00 dB -17.90 dB 7:55 09-Are We There Yet
DR12 -2.15 dB -18.61 dB 3:04 10-Vidala
DR12 0.00 dB -14.87 dB 5:26 11-Slip Away
DR12 -6.26 dB -24.82 dB 2:35 12-Letter From Home
––––––––––––––––––––––––––––––––––––––––

Number of tracks: 12
Official DR value: DR13

Samplerate: 44100 Hz
Channels: 2
Bits per sample: 16
Bitrate: 822 kbps
Codec: FLAC
================================================================================

Pat Metheny Group - Letter From Home (1989) {Geffen}
Pat Metheny Group - Letter From Home (1989) {Geffen}
Pat Metheny Group - Letter From Home (1989) {Geffen}


Thanks to the original ripper