Tags
Language
Tags
February 2024
Su Mo Tu We Th Fr Sa
28 29 30 31 1 2 3
4 5 6 7 8 9 10
11 12 13 14 15 16 17
18 19 20 21 22 23 24
25 26 27 28 29 1 2
Attention❗ To save your time, in order to download anything on this site, you must be registered 👉 HERE. If you do not have a registration yet, it is better to do it right away. ✌

( • )( • ) ( ͡⚆ ͜ʖ ͡⚆ ) (‿ˠ‿)
SpicyMags.xyz

Ottmar Liebert - Nouveau Flamenco (1990)

Posted By: v3122
Ottmar Liebert - Nouveau Flamenco (1990)

Ottmar Liebert - Nouveau Flamenco (1990)
EAC | Flac(Image) + Cue + Log & MP3 CBR 320Kbps
Higher Octave Music, HOMCD 7026 | ~ 286 or 119 Mb | Artwork(jpg) -> 25 Mb
Flamenco

Almost overnight, the success of Ottmar Liebert's groundbreaking 1990 debut Nouveau Flamenco catapulted Higher Octave Music into one of the industry's top indie labels and introduced the instrumental world to a fresh, exotic sound unlike any other. Quickly hitting the pole position on Billboard's new age chart, the album took the world by storm. In the U.S. it was certified gold in 1993 and platinum in 1997, while achieving gold status in Canada and Mexico and platinum status in New Zealand and Australia. More than a simple repackaging of its best-selling release of all time, Higher Octave's re-release of the Nouveau Flamenco 1990-2000 Special Edition is a true treasure featuring vibrant new mixes of all the original tracks as well as six previously unreleased songs recorded before or during the original sessions. Though he has gone on to build an amazing catalog with Epic Records, Liebert's love for Nouveau Flamenco ensured his personal involvement in the new release. Gary Lyons, who engineered the guitarist's previous three albums, was hired to remix the old tracks and copy the songs from the original primitive 1/2" tapes they were on to 2" tapes. Liebert also got great joy out of rediscovering three songs that didn't make the original release, and three more that he recorded just prior to the Nouveau Flamenco project. These include the contemplative "Lonely Hours," the clap-along fun of "Morning Sky," the contemplative "La Memoria/Shadows," the gentle "Sudden Shadows," and the contemplative closer "Under Blue Moon" – all fine, of course, but not quite on the melodic and rhythmic-hypnotic level of classics like "Barcelona Nights." The Nouveau Flamenco 1990-2000 Special Edition is nonetheless a great opportunity for both longtime and new fans to rediscover the magic of when Ottmar Liebert began his extraordinary journey.

by Jonathan Widran, allmusic
Ottmar Liebert - Nouveau Flamenco (1990):

Ottmar Liebert - Nouveau Flamenco (1990)

Tracklist:

01. Barcelona Nights 4:04
02. Heart Still/Beating (4 Berlin) 4:08
03. 3 Women Walking 4:25
04. 2 The Night (Fast Cars/4 Frank) 4:19
05. Passing Storm 3:57
06. Santa Fe 4:18
07. Surrender 2 Love 4:27
08. Waiting 4 Stars 2 Fall 4:56
09. Road 2 Her/Home (Bulerias) 4:16
10. After The Rain 3:20
11. Flowers Of Romance (4 Bok Yun) 3:17
12. Moon Over Trees 1:48
13. Shadows 3:14

Exact Audio Copy V1.3 from 2. September 2016

EAC extraction logfile from 8. December 2019, 20:25

Ottmar Liebert / Nouveau Flamenco (HOMCD 7026)

Used drive : ASUS DRW-24D5MT Adapter: 1 ID: 0

Read mode : Secure
Utilize accurate stream : Yes
Defeat audio cache : Yes
Make use of C2 pointers : No

Read offset correction : 6
Overread into Lead-In and Lead-Out : No
Fill up missing offset samples with silence : Yes
Delete leading and trailing silent blocks : No
Null samples used in CRC calculations : Yes
Used interface : Native Win32 interface for Win NT & 2000

Used output format : User Defined Encoder
Selected bitrate : 768 kBit/s
Quality : High
Add ID3 tag : No
Command line compressor : C:\Program Files (x86)\Exact Audio Copy\Flac\flac.exe
Additional command line options : -V -8 -T "Genre=%genre%" -T "Artist=%artist%" -T "Title=%title%" -T "Album=%albumtitle%" -T "Date=%year%" -T "Tracknumber=%tracknr%" -T "Comment=%comment%" %source%


TOC of the extracted CD

Track | Start | Length | Start sector | End sector
––––––––––––––––––––––––––––-
1 | 0:00.00 | 4:03.58 | 0 | 18282
2 | 4:03.58 | 4:08.27 | 18283 | 36909
3 | 8:12.10 | 4:24.53 | 36910 | 56762
4 | 12:36.63 | 4:18.65 | 56763 | 76177
5 | 16:55.53 | 3:57.27 | 76178 | 93979
6 | 20:53.05 | 4:18.23 | 93980 | 113352
7 | 25:11.28 | 4:27.27 | 113353 | 133404
8 | 29:38.55 | 4:56.28 | 133405 | 155632
9 | 34:35.08 | 4:15.72 | 155633 | 174829
10 | 38:51.05 | 3:19.38 | 174830 | 189792
11 | 42:10.43 | 3:16.42 | 189793 | 204534
12 | 45:27.10 | 1:47.60 | 204535 | 212619
13 | 47:14.70 | 3:14.25 | 212620 | 227194


Range status and errors

Selected range

Filename I:\dafnaplus\Ottmar Liebert\Ottmar Liebert - Nouveau Flamenco (HOMCD 7026).wav

Peak level 99.7 %
Extraction speed 2.9 X
Range quality 100.0 %
Test CRC CEA01B80
Copy CRC CEA01B80
Copy OK

No errors occurred


AccurateRip summary

Track 1 accurately ripped (confidence 62) [674527FD] (AR v2)
Track 2 accurately ripped (confidence 61) [72AF6241] (AR v2)
Track 3 accurately ripped (confidence 63) [E7F1DB59] (AR v2)
Track 4 accurately ripped (confidence 65) [9E0D75C6] (AR v2)
Track 5 accurately ripped (confidence 63) [BEB1F910] (AR v2)
Track 6 accurately ripped (confidence 64) [B4E4D8A6] (AR v2)
Track 7 accurately ripped (confidence 65) [8F576685] (AR v2)
Track 8 accurately ripped (confidence 65) [6A80B509] (AR v2)
Track 9 accurately ripped (confidence 64) [A7CDC365] (AR v2)
Track 10 accurately ripped (confidence 63) [F0902A9A] (AR v2)
Track 11 accurately ripped (confidence 63) [C860B33C] (AR v2)
Track 12 accurately ripped (confidence 62) [D4CF9D6B] (AR v2)
Track 13 accurately ripped (confidence 63) [E374104E] (AR v2)

All tracks accurately ripped

End of status report

–– CUETools DB Plugin V2.1.6

[CTDB TOCID: pOOiZqzX3AlIfnMcH7A1IWe3ffU-] found
Submit result: pOOiZqzX3AlIfnMcH7A1IWe3ffU- has been confirmed
Track | CTDB Status
1 | (215/225) Accurately ripped
2 | (218/225) Accurately ripped
3 | (221/225) Accurately ripped
4 | (221/225) Accurately ripped
5 | (221/225) Accurately ripped
6 | (220/225) Accurately ripped
7 | (221/225) Accurately ripped
8 | (221/225) Accurately ripped
9 | (219/225) Accurately ripped
10 | (222/225) Accurately ripped
11 | (220/225) Accurately ripped
12 | (219/225) Accurately ripped
13 | (219/225) Accurately ripped


==== Log checksum 0F7050F14508DC0C4600C39A881D85F0146D83DCB4FDC454832FC44D1A40034D ====


[CUETools log; Date: 13.12.2019 15:00:24; Version: 2.1.4]
[AccurateRip ID: 0019d726-01009690-b00bd50d] found.
Track [ CRC | V2 ] Status
01 [97f43742|674527fd] (023+062/204) Accurately ripped
02 [480a6673|72af6241] (022+061/200) Accurately ripped
03 [58c069ca|e7f1db59] (023+063/202) Accurately ripped
04 [5f9ac12b|9e0d75c6] (024+065/207) Accurately ripped
05 [a32edff1|beb1f910] (024+063/205) Accurately ripped
06 [41d840de|b4e4d8a6] (024+064/206) Accurately ripped
07 [1dafc426|8f576685] (024+065/208) Accurately ripped
08 [82c58299|6a80b509] (023+065/207) Accurately ripped
09 [e314de87|a7cdc365] (024+064/206) Accurately ripped
10 [fee8438a|f0902a9a] (024+063/205) Accurately ripped
11 [7d83dd38|c860b33c] (023+063/203) Accurately ripped
12 [02c71b47|d4cf9d6b] (024+062/202) Accurately ripped
13 [f5b51a92|e374104e] (022+063/196) Accurately ripped
Offsetted by -135:
01 [1004f1d1] (046/204) Accurately ripped
02 [099ba502] (046/200) Accurately ripped
03 [56a0b330] (046/202) Accurately ripped
04 [070cecde] (047/207) Accurately ripped
05 [194f3c35] (047/205) Accurately ripped
06 [120db2ae] (045/206) Accurately ripped
07 [76bcced3] (047/208) Accurately ripped
08 [e21d2165] (047/207) Accurately ripped
09 [53cba235] (046/206) Accurately ripped
10 [f9a613c8] (047/205) Accurately ripped
11 [39320098] (046/203) Accurately ripped
12 [06fa0a17] (046/202) Accurately ripped
13 [f52762fe] (043/196) Accurately ripped

Track Peak [ CRC32 ] [W/O NULL] [ LOG ]
– 99,7 [CEA01B80] [184C77CE] CRC32
01 99,7 [2AB785F5] [15FE6A62]
02 99,7 [194403F9] [B83A26A9]
03 99,7 [EC5D23DB] [45504170]
04 99,7 [D6F3C922] [99CF88A9]
05 99,7 [FFDCB247] [FD10CF87]
06 99,7 [BD2A2D0D] [EA24A1CF]
07 99,7 [EE018606] [C855BC1C]
08 99,7 [59927D00] [8A2B4EC4]
09 99,7 [712EF0FC] [B0C594ED]
10 98,9 [1D744064] [6A7912B3]
11 89,5 [52A9F734] [F491F58B]
12 83,3 [C7DDD7C6] [661B5A9D]
13 99,7 [436C0BC0] [C52C4ED8]


Ottmar Liebert - Nouveau Flamenco (1990)

All thanks go to dafnaplus

Flamenco in my Blog

Download Ottmar Liebert - Nouveau Flamenco (1990):