Subcategories
Tags
Language
Tags

Neil Diamond - The Very Best of Neil Diamond: The Original Studio Recordings (2011) [Re-Up]

Posted By: Designol
Neil Diamond - The Very Best of Neil Diamond: The Original Studio Recordings (2011) [Re-Up]

Neil Diamond - The Very Best of Neil Diamond: The Original Studio Recordings (2011)
EAC | FLAC | Tracks (Cue&Log) ~ 488 Mb | Mp3 (CBR320) ~ 188 Mb | Scans included
Label: Columbia/Legacy | # 88765 40588 2 | Time: 01:18:46
Singer/Songwriter, Pop/Rock, Soft Rock, Adult Contemporary

Neil Diamond's five-decade career as a singer, songwriter, and performer has certainly been a successful one by any standard. He’s sold well over 115 million records worldwide to date and has had eight number one singles ("Cracklin Rosie," "Song Sung Blue," "Desiree," "You Don't Bring Me Flowers," "Love on the Rocks," "America," "Yesterday's Songs," and "Heartlight"), and if he hasn't always generated the kind of critical respect he probably deserves, he’s been a steady and dependable artist who has managed to keep his large core audience happy. This 23-track set surveys the whole of Diamond's recording career, collecting his key and signature sides, beginning with his first hits for Bang Records in the mid-'60s through his commercial peak for Uni/MCA between 1968 and 1972, cuts from 1980’s The Jazz Singer (a soundtrack album that went platinum five times over on Capitol Records), and ending with tracks from Diamond's two Rick Rubin-produced albums, 2005’s 12 Songs and 2008’s Home Before Dark, on Columbia Records. Amazingly, this is the first multi-label single-disc collection of Diamond's signature songs like “Forever in Blue Jeans,” “Cherry, Cherry,” “I Am…I Said,” “Sweet Caroline,” “Cracklin’ Rosie,” “I’m a Believer,” “Holly Holy,” “Solitary Man,” “Song Sung Blue,” “Kentucky Woman,” “Brother Love’s Traveling Salvation Show,” his hit duet with Barbra Streisand “You Don’t Bring Me Flowers,” and many others. The end result is the perfect career-spanning single-disc introduction to this iconic singer and songwriter.

Review by Steve Leggett, Allmusic.com

Neil Diamond - The Very Best of Neil Diamond: The Original Studio Recordings (2011) [Re-Up]



Tracklist:

01. Forever In Blue Jeans (03:27)
02. Beautiful Noise (03:13)
03. Love On The Rocks (03:36)
04. Cherry, Cherry (02:43)
05. I Am… I Said (03:34)
06. Sweet Caroline (03:21)
07. Cracklin' Rosie (02:59)
08. Play Me (03:51)
09. I'm A Believer (02:42)
10. Girl, You'll Be A Woman Soon (02:59)
11. Holly, Holy (04:41)
12. Solitary Man (02:33)
13. Song Sung Blue (03:17)
14. You Don't Bring Me Flowers (03:15)
15. Hello Again (04:02)
16. Red, Red Wine (02:41)
17. If You Know What I Mean (03:41)
18. Brother Love's Traveling Salvation Show (03:29)
19. Pretty Amazing Grace (03:53)
20. Kentucky Woman (02:24)
21. Shilo (03:22)
22. America (04:20)
23. Hell Yeah (04:32)


Exact Audio Copy V1.0 beta 3 from 29. August 2011

EAC extraction logfile from 19. October 2014, 15:50

Neil Diamond / The Very Best Of

Used drive : HL-DT-STDVDRAM GSA-T50L Adapter: 1 ID: 0

Read mode : Secure
Utilize accurate stream : Yes
Defeat audio cache : No
Make use of C2 pointers : No

Read offset correction : 667
Overread into Lead-In and Lead-Out : No
Fill up missing offset samples with silence : Yes
Delete leading and trailing silent blocks : No
Null samples used in CRC calculations : Yes
Used interface : Native Win32 interface for Win NT & 2000
Gap handling : Appended to previous track

Used output format : User Defined Encoder
Selected bitrate : 1024 kBit/s
Quality : High
Add ID3 tag : No
Command line compressor : C:\Program Files\Exact Audio Copy\Flac\flac.exe
Additional command line options : -8 -V -T "ARTIST=%artist%" -T "TITLE=%title%" -T "ALBUM=%albumtitle%" -T "DATE=%year%" -T "TRACKNUMBER=%tracknr%" -T "GENRE=%genre%" -T "PERFORMER=%albuminterpret%" -T "COMPOSER=%composer%" %haslyrics%–tag-from-file=LYRICS="%lyricsfile%"%haslyrics% -T "ALBUMARTIST=%albumartist%" -T "DISCNUMBER=%cdnumber%" -T "TOTALDISCS=%totalcds%" -T "TOTALTRACKS=%numtracks%" -T "COMMENT=%comment%" %source% -o %dest%


TOC of the extracted CD

Track | Start | Length | Start sector | End sector
––––––––––––––––––––––––––––-
1 | 0:00.00 | 3:27.51 | 0 | 15575
2 | 3:27.51 | 3:13.43 | 15576 | 30093
3 | 6:41.19 | 3:36.72 | 30094 | 46365
4 | 10:18.16 | 2:43.52 | 46366 | 58642
5 | 13:01.68 | 3:34.18 | 58643 | 74710
6 | 16:36.11 | 3:21.48 | 74711 | 89833
7 | 19:57.59 | 2:59.53 | 89834 | 103311
8 | 22:57.37 | 3:51.05 | 103312 | 120641
9 | 26:48.42 | 2:42.63 | 120642 | 132854
10 | 29:31.30 | 2:59.38 | 132855 | 146317
11 | 32:30.68 | 4:41.01 | 146318 | 167393
12 | 37:11.69 | 2:33.07 | 167394 | 178875
13 | 39:45.01 | 3:17.13 | 178876 | 193663
14 | 43:02.14 | 3:15.26 | 193664 | 208314
15 | 46:17.40 | 4:02.41 | 208315 | 226505
16 | 50:20.06 | 2:41.38 | 226506 | 238618
17 | 53:01.44 | 3:41.46 | 238619 | 255239
18 | 56:43.15 | 3:29.01 | 255240 | 270915
19 | 60:12.16 | 3:53.57 | 270916 | 288447
20 | 64:05.73 | 2:24.64 | 288448 | 299311
21 | 66:30.62 | 3:22.63 | 299312 | 314524
22 | 69:53.50 | 4:20.22 | 314525 | 334046
23 | 74:13.72 | 4:32.61 | 334047 | 354507


Track 1

Filename C:\FLAC\01 - Neil Diamond - Forever In Blue Jeans.wav

Pre-gap length 0:00:02.00

Peak level 100.0 %
Extraction speed 4.2 X
Track quality 100.0 %
Test CRC 4CAC88A7
Copy CRC 4CAC88A7
Accurately ripped (confidence 9) [950CCD60] (AR v2)
Copy OK

Track 2

Filename C:\FLAC\02 - Neil Diamond - Beautiful Noise.wav

Peak level 98.8 %
Extraction speed 4.6 X
Track quality 100.0 %
Test CRC 2DAA1FC1
Copy CRC 2DAA1FC1
Accurately ripped (confidence 9) [80263607] (AR v2)
Copy OK

Track 3

Filename C:\FLAC\03 - Neil Diamond - Love On The Rocks.wav

Peak level 98.8 %
Extraction speed 4.8 X
Track quality 100.0 %
Test CRC A199C2D7
Copy CRC A199C2D7
Accurately ripped (confidence 9) [85D5AB27] (AR v2)
Copy OK

Track 4

Filename C:\FLAC\04 - Neil Diamond - Cherry, Cherry.wav

Peak level 99.8 %
Extraction speed 5.0 X
Track quality 99.9 %
Test CRC 89DCAB0C
Copy CRC 89DCAB0C
Accurately ripped (confidence 9) [4358BD39] (AR v2)
Copy OK

Track 5

Filename C:\FLAC\05 - Neil Diamond - I Am… I Said.wav

Pre-gap length 0:00:00.48

Peak level 98.8 %
Extraction speed 5.5 X
Track quality 100.0 %
Test CRC E9781D60
Copy CRC E9781D60
Accurately ripped (confidence 9) [0332F383] (AR v2)
Copy OK

Track 6

Filename C:\FLAC\06 - Neil Diamond - Sweet Caroline.wav

Pre-gap length 0:00:00.13

Peak level 98.8 %
Extraction speed 5.8 X
Track quality 100.0 %
Test CRC A2D81E45
Copy CRC A2D81E45
Accurately ripped (confidence 9) [7A4AA8E9] (AR v2)
Copy OK

Track 7

Filename C:\FLAC\07 - Neil Diamond - Cracklin' Rosie.wav

Pre-gap length 0:00:00.78

Peak level 98.8 %
Extraction speed 6.0 X
Track quality 100.0 %
Test CRC F25D74B1
Copy CRC F25D74B1
Accurately ripped (confidence 9) [7110805E] (AR v2)
Copy OK

Track 8

Filename C:\FLAC\08 - Neil Diamond - Play Me.wav

Pre-gap length 0:00:00.50

Peak level 98.8 %
Extraction speed 6.0 X
Track quality 99.9 %
Test CRC 2620A944
Copy CRC 2620A944
Accurately ripped (confidence 9) [42E341D8] (AR v2)
Copy OK

Track 9

Filename C:\FLAC\09 - Neil Diamond - I'm A Believer.wav

Peak level 97.1 %
Extraction speed 6.2 X
Track quality 100.0 %
Test CRC 8B989463
Copy CRC 8B989463
Accurately ripped (confidence 9) [6072767B] (AR v2)
Copy OK

Track 10

Filename C:\FLAC\10 - Neil Diamond - Girl, You'll Be A Woman Soon.wav

Peak level 99.0 %
Extraction speed 6.4 X
Track quality 100.0 %
Test CRC 2BB7AE72
Copy CRC 2BB7AE72
Accurately ripped (confidence 9) [13F09FD2] (AR v2)
Copy OK

Track 11

Filename C:\FLAC\11 - Neil Diamond - Holly, Holy.wav

Pre-gap length 0:00:00.04

Peak level 100.0 %
Extraction speed 6.8 X
Track quality 100.0 %
Test CRC 6DC8D3BC
Copy CRC 6DC8D3BC
Accurately ripped (confidence 9) [2EE62057] (AR v2)
Copy OK

Track 12

Filename C:\FLAC\12 - Neil Diamond - Solitary Man.wav

Peak level 98.8 %
Extraction speed 7.2 X
Track quality 100.0 %
Test CRC 4635FF63
Copy CRC 4635FF63
Accurately ripped (confidence 9) [46148C31] (AR v2)
Copy OK

Track 13

Filename C:\FLAC\13 - Neil Diamond - Song Sung Blue.wav

Peak level 98.8 %
Extraction speed 7.1 X
Track quality 99.9 %
Test CRC 26E85E55
Copy CRC 26E85E55
Accurately ripped (confidence 9) [5FD2C14C] (AR v2)
Copy OK

Track 14

Filename C:\FLAC\14 - Neil Diamond & Barbra Streisand) - You Don't Bring Me Flowers.wav

Pre-gap length 0:00:00.22

Peak level 98.8 %
Extraction speed 7.5 X
Track quality 100.0 %
Test CRC 932D9D9F
Copy CRC 932D9D9F
Accurately ripped (confidence 9) [3B5D1F92] (AR v2)
Copy OK

Track 15

Filename C:\FLAC\15 - Neil Diamond - Hello Again.wav

Peak level 98.8 %
Extraction speed 7.4 X
Track quality 100.0 %
Test CRC 7ACA9672
Copy CRC 7ACA9672
Accurately ripped (confidence 9) [A08069E3] (AR v2)
Copy OK

Track 16

Filename C:\FLAC\16 - Neil Diamond - Red, Red Wine.wav

Peak level 99.9 %
Extraction speed 7.6 X
Track quality 100.0 %
Test CRC 10754738
Copy CRC 10754738
Accurately ripped (confidence 9) [4BD4A457] (AR v2)
Copy OK

Track 17

Filename C:\FLAC\17 - Neil Diamond - If You Know What I Mean.wav

Pre-gap length 0:00:01.16

Peak level 100.0 %
Extraction speed 7.9 X
Track quality 100.0 %
Test CRC F2FCF848
Copy CRC F2FCF848
Accurately ripped (confidence 9) [D818FFD2] (AR v2)
Copy OK

Track 18

Filename C:\FLAC\18 - Neil Diamond - Brother Love's Traveling Salvation Show.wav

Peak level 98.8 %
Extraction speed 8.0 X
Track quality 100.0 %
Test CRC D4BED95F
Copy CRC D4BED95F
Accurately ripped (confidence 9) [04CA2D2E] (AR v2)
Copy OK

Track 19

Filename C:\FLAC\19 - Neil Diamond - Pretty Amazing Grace.wav

Peak level 80.7 %
Extraction speed 8.5 X
Track quality 100.0 %
Test CRC 9C99E262
Copy CRC 9C99E262
Accurately ripped (confidence 9) [C3DCF50F] (AR v2)
Copy OK

Track 20

Filename C:\FLAC\20 - Neil Diamond - Kentucky Woman.wav

Peak level 98.7 %
Extraction speed 8.6 X
Track quality 100.0 %
Test CRC E2123549
Copy CRC E2123549
Accurately ripped (confidence 9) [DFF552CB] (AR v2)
Copy OK

Track 21

Filename C:\FLAC\21 - Neil Diamond - Shilo.wav

Pre-gap length 0:00:00.65

Peak level 85.7 %
Extraction speed 8.4 X
Track quality 99.9 %
Test CRC 9F26EC56
Copy CRC 9F26EC56
Accurately ripped (confidence 9) [0703FAE2] (AR v2)
Copy OK

Track 22

Filename C:\FLAC\22 - Neil Diamond - America.wav

Peak level 98.8 %
Extraction speed 8.5 X
Track quality 99.9 %
Test CRC 01516F27
Copy CRC 01516F27
Accurately ripped (confidence 9) [7EDD4F45] (AR v2)
Copy OK

Track 23

Filename C:\FLAC\23 - Neil Diamond - Hell Yeah.wav

Peak level 90.1 %
Extraction speed 8.9 X
Track quality 100.0 %
Test CRC 81EF50E7
Copy CRC 81EF50E7
Accurately ripped (confidence 9) [82B4A620] (AR v2)
Copy OK


All tracks accurately ripped

No errors occurred

End of status report

–– CUETools DB Plugin V2.1.3

[CTDB TOCID: oJxML31mMZDwNhbLPM.iO.zBHBA-] found, Submit result: oJxML31mMZDwNhbLPM.iO.zBHBA- has been confirmed
[ac41f8ab] (69/75) Accurately ripped
[ba3a3ec7] (01/75) Differs in 19903 samples @18:50:12-18:50:29
[d7e4c13a] (01/75) No match
[005a5071] (01/75) No match
[cf89b2ca] (01/75) No match
[0797c357] (01/75) No match
[ce6dc3d1] (01/75) No match
You can use CUETools to repair this rip.


==== Log checksum BDFEE020E32FF52E8FC2D137B4052006F870BCB3A9547097B7F26DB37C8B7DEF ====

––––––––––––––––––––––––––––––

Exact Audio Copy V1.0 beta 3 from 29. August 2011

EAC extraction logfile from 19. October 2014, 15:50

Neil Diamond / The Very Best Of

Used drive : HL-DT-STDVDRAM GSA-T50L Adapter: 1 ID: 0

Read mode : Secure
Utilize accurate stream : Yes
Defeat audio cache : No
Make use of C2 pointers : No

Read offset correction : 667
Overread into Lead-In and Lead-Out : No
Fill up missing offset samples with silence : Yes
Delete leading and trailing silent blocks : No
Null samples used in CRC calculations : Yes
Used interface : Native Win32 interface for Win NT & 2000
Gap handling : Appended to previous track

Used output format : User Defined Encoder
Selected bitrate : 1024 kBit/s
Quality : High
Add ID3 tag : No
Command line compressor : C:\Program Files\Exact Audio Copy\Flac\flac.exe
Additional command line options : -8 -V -T "ARTIST=%artist%" -T "TITLE=%title%" -T "ALBUM=%albumtitle%" -T "DATE=%year%" -T "TRACKNUMBER=%tracknr%" -T "GENRE=%genre%" -T "PERFORMER=%albuminterpret%" -T "COMPOSER=%composer%" %haslyrics%–tag-from-file=LYRICS="%lyricsfile%"%haslyrics% -T "ALBUMARTIST=%albumartist%" -T "DISCNUMBER=%cdnumber%" -T "TOTALDISCS=%totalcds%" -T "TOTALTRACKS=%numtracks%" -T "COMMENT=%comment%" %source% -o %dest%


TOC of the extracted CD

Track | Start | Length | Start sector | End sector
––––––––––––––––––––––––––––-
1 | 0:00.00 | 3:27.51 | 0 | 15575
2 | 3:27.51 | 3:13.43 | 15576 | 30093
3 | 6:41.19 | 3:36.72 | 30094 | 46365
4 | 10:18.16 | 2:43.52 | 46366 | 58642
5 | 13:01.68 | 3:34.18 | 58643 | 74710
6 | 16:36.11 | 3:21.48 | 74711 | 89833
7 | 19:57.59 | 2:59.53 | 89834 | 103311
8 | 22:57.37 | 3:51.05 | 103312 | 120641
9 | 26:48.42 | 2:42.63 | 120642 | 132854
10 | 29:31.30 | 2:59.38 | 132855 | 146317
11 | 32:30.68 | 4:41.01 | 146318 | 167393
12 | 37:11.69 | 2:33.07 | 167394 | 178875
13 | 39:45.01 | 3:17.13 | 178876 | 193663
14 | 43:02.14 | 3:15.26 | 193664 | 208314
15 | 46:17.40 | 4:02.41 | 208315 | 226505
16 | 50:20.06 | 2:41.38 | 226506 | 238618
17 | 53:01.44 | 3:41.46 | 238619 | 255239
18 | 56:43.15 | 3:29.01 | 255240 | 270915
19 | 60:12.16 | 3:53.57 | 270916 | 288447
20 | 64:05.73 | 2:24.64 | 288448 | 299311
21 | 66:30.62 | 3:22.63 | 299312 | 314524
22 | 69:53.50 | 4:20.22 | 314525 | 334046
23 | 74:13.72 | 4:32.61 | 334047 | 354507


Track 1

Filename C:\FLAC\01 - Neil Diamond - Forever In Blue Jeans.wav

Pre-gap length 0:00:02.00

Peak level 100.0 %
Extraction speed 4.2 X
Track quality 100.0 %
Test CRC 4CAC88A7
Copy CRC 4CAC88A7
Accurately ripped (confidence 9) [950CCD60] (AR v2)
Copy OK

Track 2

Filename C:\FLAC\02 - Neil Diamond - Beautiful Noise.wav

Peak level 98.8 %
Extraction speed 4.6 X
Track quality 100.0 %
Test CRC 2DAA1FC1
Copy CRC 2DAA1FC1
Accurately ripped (confidence 9) [80263607] (AR v2)
Copy OK

Track 3

Filename C:\FLAC\03 - Neil Diamond - Love On The Rocks.wav

Peak level 98.8 %
Extraction speed 4.8 X
Track quality 100.0 %
Test CRC A199C2D7
Copy CRC A199C2D7
Accurately ripped (confidence 9) [85D5AB27] (AR v2)
Copy OK

Track 4

Filename C:\FLAC\04 - Neil Diamond - Cherry, Cherry.wav

Peak level 99.8 %
Extraction speed 5.0 X
Track quality 99.9 %
Test CRC 89DCAB0C
Copy CRC 89DCAB0C
Accurately ripped (confidence 9) [4358BD39] (AR v2)
Copy OK

Track 5

Filename C:\FLAC\05 - Neil Diamond - I Am… I Said.wav

Pre-gap length 0:00:00.48

Peak level 98.8 %
Extraction speed 5.5 X
Track quality 100.0 %
Test CRC E9781D60
Copy CRC E9781D60
Accurately ripped (confidence 9) [0332F383] (AR v2)
Copy OK

Track 6

Filename C:\FLAC\06 - Neil Diamond - Sweet Caroline.wav

Pre-gap length 0:00:00.13

Peak level 98.8 %
Extraction speed 5.8 X
Track quality 100.0 %
Test CRC A2D81E45
Copy CRC A2D81E45
Accurately ripped (confidence 9) [7A4AA8E9] (AR v2)
Copy OK

Track 7

Filename C:\FLAC\07 - Neil Diamond - Cracklin' Rosie.wav

Pre-gap length 0:00:00.78

Peak level 98.8 %
Extraction speed 6.0 X
Track quality 100.0 %
Test CRC F25D74B1
Copy CRC F25D74B1
Accurately ripped (confidence 9) [7110805E] (AR v2)
Copy OK

Track 8

Filename C:\FLAC\08 - Neil Diamond - Play Me.wav

Pre-gap length 0:00:00.50

Peak level 98.8 %
Extraction speed 6.0 X
Track quality 99.9 %
Test CRC 2620A944
Copy CRC 2620A944
Accurately ripped (confidence 9) [42E341D8] (AR v2)
Copy OK

Track 9

Filename C:\FLAC\09 - Neil Diamond - I'm A Believer.wav

Peak level 97.1 %
Extraction speed 6.2 X
Track quality 100.0 %
Test CRC 8B989463
Copy CRC 8B989463
Accurately ripped (confidence 9) [6072767B] (AR v2)
Copy OK

Track 10

Filename C:\FLAC\10 - Neil Diamond - Girl, You'll Be A Woman Soon.wav

Peak level 99.0 %
Extraction speed 6.4 X
Track quality 100.0 %
Test CRC 2BB7AE72
Copy CRC 2BB7AE72
Accurately ripped (confidence 9) [13F09FD2] (AR v2)
Copy OK

Track 11

Filename C:\FLAC\11 - Neil Diamond - Holly, Holy.wav

Pre-gap length 0:00:00.04

Peak level 100.0 %
Extraction speed 6.8 X
Track quality 100.0 %
Test CRC 6DC8D3BC
Copy CRC 6DC8D3BC
Accurately ripped (confidence 9) [2EE62057] (AR v2)
Copy OK

Track 12

Filename C:\FLAC\12 - Neil Diamond - Solitary Man.wav

Peak level 98.8 %
Extraction speed 7.2 X
Track quality 100.0 %
Test CRC 4635FF63
Copy CRC 4635FF63
Accurately ripped (confidence 9) [46148C31] (AR v2)
Copy OK

Track 13

Filename C:\FLAC\13 - Neil Diamond - Song Sung Blue.wav

Peak level 98.8 %
Extraction speed 7.1 X
Track quality 99.9 %
Test CRC 26E85E55
Copy CRC 26E85E55
Accurately ripped (confidence 9) [5FD2C14C] (AR v2)
Copy OK

Track 14

Filename C:\FLAC\14 - Neil Diamond & Barbra Streisand) - You Don't Bring Me Flowers.wav

Pre-gap length 0:00:00.22

Peak level 98.8 %
Extraction speed 7.5 X
Track quality 100.0 %
Test CRC 932D9D9F
Copy CRC 932D9D9F
Accurately ripped (confidence 9) [3B5D1F92] (AR v2)
Copy OK

Track 15

Filename C:\FLAC\15 - Neil Diamond - Hello Again.wav

Peak level 98.8 %
Extraction speed 7.4 X
Track quality 100.0 %
Test CRC 7ACA9672
Copy CRC 7ACA9672
Accurately ripped (confidence 9) [A08069E3] (AR v2)
Copy OK

Track 16

Filename C:\FLAC\16 - Neil Diamond - Red, Red Wine.wav

Peak level 99.9 %
Extraction speed 7.6 X
Track quality 100.0 %
Test CRC 10754738
Copy CRC 10754738
Accurately ripped (confidence 9) [4BD4A457] (AR v2)
Copy OK

Track 17

Filename C:\FLAC\17 - Neil Diamond - If You Know What I Mean.wav

Pre-gap length 0:00:01.16

Peak level 100.0 %
Extraction speed 7.9 X
Track quality 100.0 %
Test CRC F2FCF848
Copy CRC F2FCF848
Accurately ripped (confidence 9) [D818FFD2] (AR v2)
Copy OK

Track 18

Filename C:\FLAC\18 - Neil Diamond - Brother Love's Traveling Salvation Show.wav

Peak level 98.8 %
Extraction speed 8.0 X
Track quality 100.0 %
Test CRC D4BED95F
Copy CRC D4BED95F
Accurately ripped (confidence 9) [04CA2D2E] (AR v2)
Copy OK

Track 19

Filename C:\FLAC\19 - Neil Diamond - Pretty Amazing Grace.wav

Peak level 80.7 %
Extraction speed 8.5 X
Track quality 100.0 %
Test CRC 9C99E262
Copy CRC 9C99E262
Accurately ripped (confidence 9) [C3DCF50F] (AR v2)
Copy OK

Track 20

Filename C:\FLAC\20 - Neil Diamond - Kentucky Woman.wav

Peak level 98.7 %
Extraction speed 8.6 X
Track quality 100.0 %
Test CRC E2123549
Copy CRC E2123549
Accurately ripped (confidence 9) [DFF552CB] (AR v2)
Copy OK

Track 21

Filename C:\FLAC\21 - Neil Diamond - Shilo.wav

Pre-gap length 0:00:00.65

Peak level 85.7 %
Extraction speed 8.4 X
Track quality 99.9 %
Test CRC 9F26EC56
Copy CRC 9F26EC56
Accurately ripped (confidence 9) [0703FAE2] (AR v2)
Copy OK

Track 22

Filename C:\FLAC\22 - Neil Diamond - America.wav

Peak level 98.8 %
Extraction speed 8.5 X
Track quality 99.9 %
Test CRC 01516F27
Copy CRC 01516F27
Accurately ripped (confidence 9) [7EDD4F45] (AR v2)
Copy OK

Track 23

Filename C:\FLAC\23 - Neil Diamond - Hell Yeah.wav

Peak level 90.1 %
Extraction speed 8.9 X
Track quality 100.0 %
Test CRC 81EF50E7
Copy CRC 81EF50E7
Accurately ripped (confidence 9) [82B4A620] (AR v2)
Copy OK


All tracks accurately ripped

No errors occurred

End of status report

–– CUETools DB Plugin V2.1.3

[CTDB TOCID: oJxML31mMZDwNhbLPM.iO.zBHBA-] found, Submit result: oJxML31mMZDwNhbLPM.iO.zBHBA- has been confirmed
[ac41f8ab] (69/75) Accurately ripped
[ba3a3ec7] (01/75) Differs in 19903 samples @18:50:12-18:50:29
[d7e4c13a] (01/75) No match
[005a5071] (01/75) No match
[cf89b2ca] (01/75) No match
[0797c357] (01/75) No match
[ce6dc3d1] (01/75) No match
You can use CUETools to repair this rip.


==== Log checksum BDFEE020E32FF52E8FC2D137B4052006F870BCB3A9547097B7F26DB37C8B7DEF ====

foobar2000 1.2 / Dynamic Range Meter 1.1.1
log date: 2014-10-20 12:32:10

––––––––––––––––––––––––––––––––––––––––
Analyzed: Neil Diamond & Barbra Streisand) / The Very Best Of (1)
Neil Diamond / The Very Best Of (2-23)
––––––––––––––––––––––––––––––––––––––––

DR Peak RMS Duration Track
––––––––––––––––––––––––––––––––––––––––
DR10 -0.10 dB -14.06 dB 3:15 14-You Don't Bring Me Flowers
DR10 0.00 dB -12.39 dB 3:28 01-Forever In Blue Jeans
DR8 -0.10 dB -10.99 dB 3:14 02-Beautiful Noise
DR8 -0.10 dB -11.67 dB 3:37 03-Love On The Rocks
DR8 -0.01 dB -9.59 dB 2:44 04-Cherry, Cherry
DR8 -0.10 dB -10.86 dB 3:34 05-I Am… I Said
DR9 -0.10 dB -11.50 dB 3:22 06-Sweet Caroline
DR8 -0.10 dB -10.25 dB 3:00 07-Cracklin' Rosie
DR10 -0.10 dB -12.87 dB 3:51 08-Play Me
DR9 -0.26 dB -11.12 dB 2:43 09-I'm A Believer
DR9 -0.08 dB -10.12 dB 3:00 10-Girl, You'll Be A Woman Soon
DR7 0.00 dB -10.01 dB 4:41 11-Holly, Holy
DR9 -0.10 dB -10.43 dB 2:33 12-Solitary Man
DR9 -0.10 dB -12.44 dB 3:17 13-Song Sung Blue
DR9 -0.10 dB -12.88 dB 4:03 15-Hello Again
DR10 -0.01 dB -11.60 dB 2:42 16-Red, Red Wine
DR8 0.00 dB -10.05 dB 3:42 17-If You Know What I Mean
DR7 -0.10 dB -9.66 dB 3:29 18-Brother Love's Traveling Salvation Show
DR8 -1.86 dB -12.88 dB 3:54 19-Pretty Amazing Grace
DR10 -0.11 dB -11.60 dB 2:25 20-Kentucky Woman
DR9 -1.33 dB -11.77 dB 3:23 21-Shilo
DR9 -0.10 dB -10.71 dB 4:20 22-America
DR11 -0.90 dB -14.73 dB 4:33 23-Hell Yeah
––––––––––––––––––––––––––––––––––––––––

Number of tracks: 23
Official DR value: DR9

Samplerate: 44100 Hz
Channels: 2
Bits per sample: 16
Bitrate: 738 kbps
Codec: FLAC
================================================================================

Neil Diamond - The Very Best of Neil Diamond: The Original Studio Recordings (2011) [Re-Up]

Neil Diamond - The Very Best of Neil Diamond: The Original Studio Recordings (2011) [Re-Up]

All thanks to original releaser

More interesting music in My Blog