Subcategories
Tags
Language
Tags

Marcus Miller - Marcus (2008) {3 Deuces/Concord Jazz} **[RE-UP]**

Posted By: TestTickles
Marcus Miller - Marcus (2008) {3 Deuces/Concord Jazz} **[RE-UP]**

Marcus Miller - Marcus (2008) {3 Deuces/Concord Jazz}
EAC Rip | FLAC with CUE and log | scans | 487 mb
MP3 CBR 320kbps | RAR | 199 mb
Genre: jazz

Marcus is the 2008 album by American bassist Marcus Miller. Released by 3 Deuces Records via Concord Jazz, this also includes special guests Corinne Bailey Rae, Lalah Hathaway, actress Taraji P. Henson, and David Sanborn.

Marcus Miller - Marcus (2008) {3 Deuces/Concord Jazz} **[RE-UP]**

01. Blast!
02. Funk Joint
03. Free
04. Higher Ground
05. Milky Way
06. Pluck
07. Lost Without U
08. 'Cause I Want You
09. Ooh
10. When I Fall In Love
11. Strum
12. Jean Pierre
13. What Is Hip
14. Lost Without U (Spoken Word) (Bonus Track)

GUESTS include:
Corinne Bailey Rae-vocals (track 3)
Keb' Mo'-vocals (track 5)
Shihan The Poet
-spoken word (track 8)
Lalah Hathaway-vocals (track 9), ad-lib vocals (track 14)
The Ivey Sisters-background vocals (tracks 3, 6-7 & 14)
Taraji P. Henson-spoken word (track 14)
David Sanborn-saxophone (tracks 3 & 13)
Bernard Wright-additional synth (track 1)
Tom Scott-tenor saxophone (track 11)
Chester Thompson-organ (track 13)

Produced by Marcus Miller
Co-produced by David Issac
Associate Producer: Harold Goode
Recorded by David Issac, Marcus Miller & Taka Honda

Additional recording by Antonio Resendiz, Stephen Hart, Dean, Sharenow, Janek Gwizdala, Rod Steger, Vanessa Parr, Jared Nugent, Michael Powers, Andrea Braido, Dennis Thompson & Dennis Moody
Mixed by David Issac, Goh Hotoda, Taka Honda, Bill Schnee, Dennis Thompson & David Rideau
Assistant engineers: Ursula Arevalo, Darius Fong, Todd Steinhauer, Noel Zancanella & Scott Coslett
Mastered by Bob Ludwig

Marcus Miller - Marcus (2008) {3 Deuces/Concord Jazz} **[RE-UP]**


EAC extraction logfile from 26. June 2017, 5:08 for CD
Marcus Miller / Marcus

Used drive : TSSTcorpDVD+-RW TS-H653B Adapter: 2 ID: 0
Read mode : Secure with NO C2, accurate stream, disable cache
Read offset correction : 6
Overread into Lead-In and Lead-Out : No

Used output format : Internal WAV Routines
44.100 Hz; 16 Bit; Stereo

Other options :
Fill up missing offset samples with silence : Yes
Delete leading and trailing silent blocks : No
Native Win32 interface for Win NT & 2000


Track 1
Filename C:\cuntfist\FLAC\Marcus Miller - Marcus (2008) [FLAC] {3 Deuces, Concord Jazz}\01 - Blast!.wav

Pre-gap length 0:00:02.00

Peak level 98.8 %
Track quality 99.9 %
Test CRC 31637A7D
Copy CRC 31637A7D
Copy OK

Track 2
Filename C:\cuntfist\FLAC\Marcus Miller - Marcus (2008) [FLAC] {3 Deuces, Concord Jazz}\02 - Funk Joint.wav

Peak level 94.4 %
Track quality 100.0 %
Test CRC 6CE2B00C
Copy CRC 6CE2B00C
Copy OK

Track 3
Filename C:\cuntfist\FLAC\Marcus Miller - Marcus (2008) [FLAC] {3 Deuces, Concord Jazz}\03 - Free.wav

Pre-gap length 0:00:02.13

Peak level 98.8 %
Track quality 99.9 %
Test CRC E9D0C1DD
Copy CRC E9D0C1DD
Copy OK

Track 4
Filename C:\cuntfist\FLAC\Marcus Miller - Marcus (2008) [FLAC] {3 Deuces, Concord Jazz}\04 - Higher Ground.wav

Peak level 98.8 %
Track quality 100.0 %
Test CRC DE169185
Copy CRC DE169185
Copy OK

Track 5
Filename C:\cuntfist\FLAC\Marcus Miller - Marcus (2008) [FLAC] {3 Deuces, Concord Jazz}\05 - Milky Way.wav

Peak level 100.0 %
Track quality 100.0 %
Test CRC 4A591A80
Copy CRC 4A591A80
Copy OK

Track 6
Filename C:\cuntfist\FLAC\Marcus Miller - Marcus (2008) [FLAC] {3 Deuces, Concord Jazz}\06 - Pluck.wav

Peak level 98.8 %
Track quality 99.9 %
Test CRC 90CB555F
Copy CRC 90CB555F
Copy OK

Track 7
Filename C:\cuntfist\FLAC\Marcus Miller - Marcus (2008) [FLAC] {3 Deuces, Concord Jazz}\07 - Lost Without U.wav

Pre-gap length 0:00:01.73

Peak level 100.0 %
Track quality 99.9 %
Test CRC 385CB52E
Copy CRC 385CB52E
Copy OK

Track 8
Filename C:\cuntfist\FLAC\Marcus Miller - Marcus (2008) [FLAC] {3 Deuces, Concord Jazz}\08 - 'Cause I Want You.wav

Pre-gap length 0:00:01.16

Peak level 98.8 %
Track quality 100.0 %
Test CRC 1C46FAB9
Copy CRC 1C46FAB9
Copy OK

Track 9
Filename C:\cuntfist\FLAC\Marcus Miller - Marcus (2008) [FLAC] {3 Deuces, Concord Jazz}\09 - Ooh.wav

Pre-gap length 0:00:01.24

Peak level 98.8 %
Track quality 100.0 %
Test CRC AB7F4BA1
Copy CRC AB7F4BA1
Copy OK

Track 10
Filename C:\cuntfist\FLAC\Marcus Miller - Marcus (2008) [FLAC] {3 Deuces, Concord Jazz}\10 - When I Fall In Love.wav

Pre-gap length 0:00:01.78

Peak level 76.6 %
Track quality 100.0 %
Test CRC BDF64AA6
Copy CRC BDF64AA6
Copy OK

Track 11
Filename C:\cuntfist\FLAC\Marcus Miller - Marcus (2008) [FLAC] {3 Deuces, Concord Jazz}\11 - Strum.wav

Peak level 99.8 %
Track quality 100.0 %
Test CRC FE292231
Copy CRC FE292231
Copy OK

Track 12
Filename C:\cuntfist\FLAC\Marcus Miller - Marcus (2008) [FLAC] {3 Deuces, Concord Jazz}\12 - Jean Pierre.wav

Pre-gap length 0:00:01.48

Peak level 100.0 %
Track quality 100.0 %
Test CRC 4C76C30D
Copy CRC 4C76C30D
Copy OK

Track 13
Filename C:\cuntfist\FLAC\Marcus Miller - Marcus (2008) [FLAC] {3 Deuces, Concord Jazz}\13 - What Is Hip .wav

Pre-gap length 0:00:02.37

Peak level 98.8 %
Track quality 100.0 %
Test CRC E6E42E54
Copy CRC E6E42E54
Copy OK

Track 14
Filename C:\cuntfist\FLAC\Marcus Miller - Marcus (2008) [FLAC] {3 Deuces, Concord Jazz}\14 - Lost Without U (Spoken Word).wav

Pre-gap length 0:00:04.38

Peak level 98.8 %
Track quality 100.0 %
Test CRC EB719CB3
Copy CRC EB719CB3
Copy OK

No errors occured


End of status report


Marcus Miller - Marcus (2008) {3 Deuces/Concord Jazz} **[RE-UP]**