Tags
Language
Tags
April 2024
Su Mo Tu We Th Fr Sa
31 1 2 3 4 5 6
7 8 9 10 11 12 13
14 15 16 17 18 19 20
21 22 23 24 25 26 27
28 29 30 1 2 3 4

Keith Emerson - Hammer It Out: The Anthology (2006)

Posted By: v3122
Keith Emerson - Hammer It Out: The Anthology (2006)

Keith Emerson - Hammer It Out: The Anthology (2006)
EAC | Flac(Image) + Cue + Log & MP3 CBR 320Kbps
2CD | Sanctuary, CMEDD-1111 | ~ 983 or 378 Mb | Scans Included
Progressive Rock / Classic Rock

This album is fantastic in its own way. Sure enough, Emerson's skill is shown remarkably in this large compilation of songs, even more so than with ELP (the piano improv). There is a downside to the compilation however: there is no real entertainment value in the songs, and the majority of them have no prog traits whatsoever, therefore i only recommend it to people who want their faces melted off, not for the people whom are looking for a decent prog album.
Emerson is absolutely incredible however, and for those that underrate his skills, i would like you all to listen to possibly all of these songs.

by The Pessimist, progarchives
Keith Emerson - Hammer It Out: The Anthology (2006):

Keith Emerson - Hammer It Out: The Anthology (2006)

Tracklist CD1:

01. Medley: i) Nicolette ii) Silver Shoes [1:23]
02. T-BONES with CHRIS BARBER «Rock Candy» [2:55]
03. THE NICE «Lumpy Gravy» [2:18]
04. KEITH EMERSON «Lament for Tony Stratton Smith» [8:04]
05. THE NICE «America / 2nd Amendment» [6:16]
06. THE NICE «Fantasia: High Level Fugue: 4th Bridge» [1:04]
07. EMERSON, LAKE & PALMER «The Three Fates» i) Clotho ii) Lachesis iii) Atropos [7:45]
08. EMERSON, LAKE & PALMER «The Old Castle / Blues Variations» [5:25]
09. EMERSON, LAKE & PALMER «Fugue» [1:57]
10. EMERSON, LAKE & PALMER «Karn Evil 9 2nd Impression» [7:09]
11. EMERSON, LAKE & PALMER «Piano Improvisations» (live) [11:50]
12. EMERSON, LAKE & PALMER «Fanfare for the Common Man» [9:40]
13. EMERSON, LAKE & PALMER «Barrelhouse Shakedown» [3:48]
14. EMERSON, LAKE & PALMER «Honky Tonk Train Blues» [3:11]
15. EMERSON, LAKE & PALMER «Introductory Fanfare / Peter Gunn Theme» (live) [4:26]
16. EMERSON, LAKE & PALMER «Up the Elephant and Around the Castle» [2:26]

Exact Audio Copy V1.3 from 2. September 2016

EAC extraction logfile from 3. May 2017, 10:46

KEITH EMERSON / «Hammer It Out» The Anthology (Gr.Britain, Castle, CMEDD-1111-1)

Used drive : ASUS DRW-24B3ST Adapter: 1 ID: 1

Read mode : Secure
Utilize accurate stream : Yes
Defeat audio cache : Yes
Make use of C2 pointers : No

Read offset correction : 6
Overread into Lead-In and Lead-Out : No
Fill up missing offset samples with silence : Yes
Delete leading and trailing silent blocks : No
Null samples used in CRC calculations : Yes
Used interface : Native Win32 interface for Win NT & 2000

Used output format : User Defined Encoder
Selected bitrate : 1024 kBit/s
Quality : High
Add ID3 tag : No
Command line compressor : C:\Program Files\EAC(v.1.3)\WV\wavpack.exe
Additional command line options : -h -hh -m %source%


TOC of the extracted CD

Track | Start | Length | Start sector | End sector
––––––––––––––––––––––––––––-
1 | 0:00.00 | 1:23.13 | 0 | 6237
2 | 1:23.13 | 2:55.34 | 6238 | 19396
3 | 4:18.47 | 2:17.66 | 19397 | 29737
4 | 6:36.38 | 8:04.09 | 29738 | 66046
5 | 14:40.47 | 6:15.59 | 66047 | 94230
6 | 20:56.31 | 1:04.27 | 94231 | 99057
7 | 22:00.58 | 7:45.08 | 99058 | 133940
8 | 29:45.66 | 5:24.50 | 133941 | 158290
9 | 35:10.41 | 1:57.02 | 158291 | 167067
10 | 37:07.43 | 7:08.39 | 167068 | 199206
11 | 44:16.07 | 11:49.39 | 199207 | 252420
12 | 56:05.46 | 9:40.32 | 252421 | 295952
13 | 65:46.03 | 3:48.26 | 295953 | 313078
14 | 69:34.29 | 3:11.03 | 313079 | 327406
15 | 72:45.32 | 4:26.27 | 327407 | 347383
16 | 77:11.59 | 2:26.10 | 347384 | 358343


Range status and errors

Selected range

Filename F:\KEITH EMERSON «Hammer It Out» The Anthology (GB 2 x CD 2006 Sanctuary Records Group Ltd. • CMEDD-1111)\KEITH EMERSON - «Hammer It Out» The Anthology (Gr.Britain, Castle, CMEDD-1111-1).wav

Peak level 100.0 %
Extraction speed 8.5 X
Range quality 100.0 %
Test CRC E603B99F
Copy CRC E603B99F
Copy OK

No errors occurred


AccurateRip summary

Track 1 accurately ripped (confidence 5) [401C8457] (AR v2)
Track 2 accurately ripped (confidence 5) [2C7F15B8] (AR v2)
Track 3 accurately ripped (confidence 5) [73F2B83C] (AR v2)
Track 4 accurately ripped (confidence 5) [B4D1B251] (AR v2)
Track 5 accurately ripped (confidence 5) [00388BAA] (AR v2)
Track 6 accurately ripped (confidence 5) [9069DF60] (AR v2)
Track 7 accurately ripped (confidence 5) [6FF4B4EF] (AR v2)
Track 8 accurately ripped (confidence 5) [8EFD0F9F] (AR v2)
Track 9 cannot be verified as accurate (confidence 5) [C4E3A5A9], AccurateRip returned [1EE14F51] (AR v2)
Track 10 cannot be verified as accurate (confidence 5) [7A2B3DAA], AccurateRip returned [688A3378] (AR v2)
Track 11 accurately ripped (confidence 5) [7D430730] (AR v2)
Track 12 accurately ripped (confidence 5) [CF0FCFD1] (AR v2)
Track 13 accurately ripped (confidence 5) [E4983936] (AR v2)
Track 14 accurately ripped (confidence 5) [975E500D] (AR v2)
Track 15 accurately ripped (confidence 5) [B443F139] (AR v2)
Track 16 accurately ripped (confidence 4) [ACDDFA7A] (AR v2)

14 track(s) accurately ripped
2 track(s) could not be verified as accurate

Some tracks could not be verified as accurate

End of status report

==== Log checksum 8F3777182A45EE2544A5DCAE6F7F7229E3DDB86AEAEEBB88EDBB0150D947A707 ====

foobar2000 1.2.9 / Dynamic Range Meter 1.1.1
log date: 2017-05-22 12:39:02

––––––––––––––––––––––––––––––––––––––––
Analyzed: KEITH EMERSON / В«Hammer It OutВ» The Anthology (Gr.Britain, Castle, CMEDD-1111-1)
––––––––––––––––––––––––––––––––––––––––

DR Peak RMS Duration Track
––––––––––––––––––––––––––––––––––––––––
DR9 -0.56 dB -12.56 dB 1:23 01-Medley: i) Nicolette ii) Silver Shoes
DR8 -1.30 dB -11.17 dB 2:55 02-T-Bones With Chris Barber - Rock Candy
DR7 -0.87 dB -9.89 dB 2:18 03-The Nice - Lumpy Gravy
DR9 -0.02 dB -12.01 dB 8:04 04-Lament For Tony Stratton Smith
DR9 -0.10 dB -10.21 dB 6:16 05-The Nice - America / 2nd Amendment
DR10 -1.05 dB -13.79 dB 1:04 06-The Nice - Fantasia: High Level Fugue: 4th Bridge
DR11 0.00 dB -14.47 dB 7:45 07-ELP - The Three Fates i) Clotho ii) Lachesis iii) Atropos
DR10 -0.02 dB -11.78 dB 5:25 08-ELP - The Old Castle / Blues Variations
DR13 0.00 dB -17.01 dB 1:57 09-ELP - Fugue
DR11 -0.53 dB -15.15 dB 7:09 10-ELP - Karn Evil 9 2nd Impression
DR10 -0.05 dB -12.88 dB 11:50 11-ELP - Piano Improvisations (live)
DR7 -0.10 dB -10.77 dB 9:40 12-ELP - Fanfare For The Common Man
DR10 -0.39 dB -13.74 dB 3:48 13-ELP - Barrelhouse Shakedown
DR10 -0.05 dB -12.60 dB 3:11 14-ELP - Honky Tonk Train Blues
DR12 -0.10 dB -14.47 dB 4:26 15-ELP - Introductory Fanfare / Peter Gunn Theme (live)
DR10 -0.10 dB -12.30 dB 2:26 16-ELP - Up The Elephant And Around The Castle
––––––––––––––––––––––––––––––––––––––––

Number of tracks: 16
Official DR value: DR10

Samplerate: 44100 Hz
Channels: 2
Bits per sample: 16
Bitrate: 832 kbps
Codec: FLAC

[CUETools log; Date: 22.05.2017 12:38:52; Version: 2.1.4]
[CTDB TOCID: qKi4UUmhauXb3L.Dnt2jDHRMFLY-] found.
Track | CTDB Status
1 | (5/5) Accurately ripped
2 | (5/5) Accurately ripped
3 | (5/5) Accurately ripped
4 | (5/5) Accurately ripped
5 | (5/5) Accurately ripped
6 | (5/5) Accurately ripped
7 | (5/5) Accurately ripped
8 | (5/5) Accurately ripped
9 | (0/5) No match
10 | (0/5) No match
11 | (5/5) Accurately ripped
12 | (5/5) Accurately ripped
13 | (5/5) Accurately ripped
14 | (5/5) Accurately ripped
15 | (5/5) Accurately ripped
16 | (5/5) Accurately ripped
[AccurateRip ID: 002bc25c-0224aa93-f712a910] found.
Track [ CRC | V2 ] Status
01 [a714b0b1|401c8457] (2+5/9) Accurately ripped
02 [4c3fd262|2c7f15b8] (2+5/9) Accurately ripped
03 [473f1893|73f2b83c] (2+5/9) Accurately ripped
04 [013917d6|b4d1b251] (2+5/9) Accurately ripped
05 [9286813d|00388baa] (2+5/9) Accurately ripped
06 [68020fd1|9069df60] (2+5/9) Accurately ripped
07 [6b752409|6ff4b4ef] (2+5/9) Accurately ripped
08 [44e4336c|8efd0f9f] (2+5/9) Accurately ripped
09 [cdf110e8|c4e3a5a9] (0+0/9) No match
10 [93464215|7a2b3daa] (0+0/9) No match
11 [6248cc73|7d430730] (2+5/9) Accurately ripped
12 [47cb1b29|cf0fcfd1] (2+5/9) Accurately ripped
13 [9d7dcc4b|e4983936] (2+5/9) Accurately ripped
14 [76df61f6|975e500d] (2+5/9) Accurately ripped
15 [98d0e273|b443f139] (2+5/9) Accurately ripped
16 [6eec64ac|acddfa7a] (2+4/8) Accurately ripped
Offsetted by -664:
01 [8bbbc6f9] (2/9) Accurately ripped
02 [4c06c3fa] (2/9) Accurately ripped
03 [90bddabb] (2/9) Accurately ripped
04 [ff2c9906] (2/9) Accurately ripped
05 [f4d556d5] (2/9) Accurately ripped
06 [b38d06b9] (2/9) Accurately ripped
07 [51e0bb19] (2/9) Accurately ripped
08 [e0709a94] (2/9) Accurately ripped
09 [d07baa9f] (0/9) No match (V2 was not tested)
10 [18d70e56] (0/9) No match
11 [4b1d0423] (2/9) Accurately ripped
12 [0847f934] (2/9) Accurately ripped
13 [5d2ac8a0] (2/9) Accurately ripped
14 [0bfb54fe] (2/9) Accurately ripped
15 [fa249103] (2/9) Accurately ripped
16 [0fffb424] (2/8) Accurately ripped

Track Peak [ CRC32 ] [W/O NULL] [ LOG ]
– 100,0 [E603B99F] [4AEF3071] CRC32
01 93,7 [2BBDB392] [542B2149]
02 86,1 [B4ABE957] [1CCAEF37]
03 90,4 [2ECE4394] [F3B66155]
04 99,7 [BAF4B00A] [5FDCCE82]
05 98,8 [C0F83F5C] [7C72CCCA]
06 88,6 [7FD16565] [9006A32D]
07 100,0 [9774475C] [6871552A]
08 99,7 [2FD20F26] [D0AEE776]
09 100,0 [E6611EE1] [CCA222BD]
10 94,1 [D65297C3] [A75A0482]
11 99,4 [4F00FCB6] [7675F731]
12 98,8 [608F4C09] [92E06D39]
13 95,5 [CA50B1D1] [F44AB886]
14 99,4 [3E0246A9] [F4C220B3]
15 98,8 [0482F558] [BFE20D7B]
16 98,8 [41D95BE4] [75634017]

Keith Emerson - Hammer It Out: The Anthology (2006)

Tracklist CD2:

01. KEITH EMERSON «Inferno Main Title» [2:55]
02. KEITH EMERSON «I'm a Man» [4:15]
03. KEITH EMERSON «Hello Sailor / Bach Before the Mast» [8:52]
04. KEITH EMERSON «Orchestral Suite to Best Revenge» [15:35]
05. EMERSON, LAKE & POWELL «The Locomotion» [4:34]
06. Medley: «3- Desde La Vida» i) La Vista ii) Frontera - Instrumental iii) Sangre De Toro [7:02]
07. KEITH EMERSON «The Church» [5:21]
08. KEITH EMERSON «Hammer it Out» [2:35]
09. KEITH EMERSON «Toccata Con Fuoco» (Piano Concerto No.1 - 3rd Movement - Rock Version) [6:58]
10. EMERSON, LAKE & PALMER «Changing States» [6:03]
11. KEITH EMERSON «B & W Blues» [5:22]
12. KEITH EMERSON «Soulscapes» [2:31]
13. KEITH EMERSON «A Blade of Grass» [2:07]
14. EMERSON, LAKE & PALMER «Close to Home» (live) [3:39]

Exact Audio Copy V1.3 from 2. September 2016

EAC extraction logfile from 3. May 2017, 11:17

KEITH EMERSON / «Hammer It Out» The Anthology (Gr.Britain, Castle, CMEDD-1111-2)

Used drive : ASUS DRW-24B3ST Adapter: 1 ID: 1

Read mode : Secure
Utilize accurate stream : Yes
Defeat audio cache : Yes
Make use of C2 pointers : No

Read offset correction : 6
Overread into Lead-In and Lead-Out : No
Fill up missing offset samples with silence : Yes
Delete leading and trailing silent blocks : No
Null samples used in CRC calculations : Yes
Used interface : Native Win32 interface for Win NT & 2000

Used output format : User Defined Encoder
Selected bitrate : 1024 kBit/s
Quality : High
Add ID3 tag : No
Command line compressor : C:\Program Files\EAC(v.1.3)\WV\wavpack.exe
Additional command line options : -h -hh -m %source%


TOC of the extracted CD

Track | Start | Length | Start sector | End sector
––––––––––––––––––––––––––––-
1 | 0:00.00 | 2:55.17 | 0 | 13141
2 | 2:55.17 | 4:14.64 | 13142 | 32255
3 | 7:10.06 | 8:51.72 | 32256 | 72152
4 | 16:02.03 | 15:34.50 | 72153 | 142252
5 | 31:36.53 | 4:33.62 | 142253 | 162789
6 | 36:10.40 | 7:02.19 | 162790 | 194458
7 | 43:12.59 | 5:20.57 | 194459 | 218515
8 | 48:33.41 | 2:34.64 | 218516 | 230129
9 | 51:08.30 | 6:58.14 | 230130 | 261493
10 | 58:06.44 | 6:02.39 | 261494 | 288682
11 | 64:09.08 | 5:22.11 | 288683 | 312843
12 | 69:31.19 | 2:31.29 | 312844 | 324197
13 | 72:02.48 | 2:06.53 | 324198 | 333700
14 | 74:09.26 | 3:39.00 | 333701 | 350125


Range status and errors

Selected range

Filename F:\KEITH EMERSON «Hammer It Out» The Anthology (GB 2 x CD 2006 Sanctuary Records Group Ltd. • CMEDD-1111)\KEITH EMERSON - «Hammer It Out» The Anthology (Gr.Britain, Castle, CMEDD-1111-2).wav

Peak level 100.0 %
Extraction speed 8.4 X
Range quality 100.0 %
Test CRC 92C9F4E3
Copy CRC 92C9F4E3
Copy OK

No errors occurred


AccurateRip summary

Track 1 accurately ripped (confidence 5) [4F3BABB7] (AR v2)
Track 2 accurately ripped (confidence 5) [7CBB76C5] (AR v2)
Track 3 accurately ripped (confidence 4) [7EA3223F] (AR v2)
Track 4 accurately ripped (confidence 4) [EE912476] (AR v2)
Track 5 accurately ripped (confidence 4) [6360F1A3] (AR v2)
Track 6 accurately ripped (confidence 4) [CF0514AD] (AR v2)
Track 7 accurately ripped (confidence 4) [2B38F391] (AR v2)
Track 8 accurately ripped (confidence 4) [D3E9920A] (AR v2)
Track 9 accurately ripped (confidence 4) [4258ABBE] (AR v2)
Track 10 accurately ripped (confidence 4) [C32B78C9] (AR v2)
Track 11 accurately ripped (confidence 4) [0F9F9DE0] (AR v2)
Track 12 accurately ripped (confidence 4) [0C9E2038] (AR v2)
Track 13 accurately ripped (confidence 4) [47C5F54E] (AR v2)
Track 14 accurately ripped (confidence 4) [186A4179] (AR v2)

All tracks accurately ripped

End of status report

==== Log checksum A8F6F7D46749DEDA977FC180098486477EAE0FD3023DA59549032F1998FB309E ====

foobar2000 1.2.9 / Dynamic Range Meter 1.1.1
log date: 2017-05-22 12:38:34

––––––––––––––––––––––––––––––––––––––––
Analyzed: KEITH EMERSON / В«Hammer It OutВ» The Anthology (Gr.Britain, Castle, CMEDD-1111-2)
––––––––––––––––––––––––––––––––––––––––

DR Peak RMS Duration Track
––––––––––––––––––––––––––––––––––––––––
DR8 -0.10 dB -12.14 dB 2:55 01-Inferno Main Title
DR11 -0.10 dB -12.25 dB 4:15 02-I'm a Man
DR9 0.00 dB -11.81 dB 8:52 03-Hello Sailor / Bach Before the Mast
DR9 -0.10 dB -12.13 dB 15:35 04-Orchestral Suite to Best Revenge
DR8 -0.60 dB -9.73 dB 4:34 05-Emerson, Lake & Powell - The Locomotion
DR9 0.00 dB -11.21 dB 7:02 06-3 - Desde La Vida (Medley) i) La Vista ii) Frontera - Instrumental iii) Sangre De Toro
DR10 -0.10 dB -11.77 dB 5:21 07-The Church
DR12 -0.38 dB -14.15 dB 2:35 08-Hammer it Out
DR10 -0.25 dB -12.41 dB 6:58 09-Toccata Con Fuoco (Piano Concerto No.1 - 3rd Movement - Rock Version)
DR8 -0.10 dB -10.41 dB 6:03 10-ELP - Changing States
DR11 -0.74 dB -15.10 dB 5:22 11-B & W Blues
DR9 -4.07 dB -17.15 dB 2:31 12-Soulscapes
DR12 -1.99 dB -18.27 dB 2:07 13-A Blade of Grass
DR8 -2.88 dB -14.48 dB 3:39 14-ELP - Close to Home (live)
––––––––––––––––––––––––––––––––––––––––

Number of tracks: 14
Official DR value: DR10

Samplerate: 44100 Hz
Channels: 2
Bits per sample: 16
Bitrate: 853 kbps
Codec: FLAC

[CUETools log; Date: 22.05.2017 12:38:21; Version: 2.1.4]
[CTDB TOCID: a0_bbxttqiza5S2Dk119BglBLZE-] found.
Track | CTDB Status
1 | (6/6) Accurately ripped
2 | (6/6) Accurately ripped
3 | (6/6) Accurately ripped
4 | (6/6) Accurately ripped
5 | (6/6) Accurately ripped
6 | (6/6) Accurately ripped
7 | (6/6) Accurately ripped
8 | (6/6) Accurately ripped
9 | (6/6) Accurately ripped
10 | (6/6) Accurately ripped
11 | (6/6) Accurately ripped
12 | (6/6) Accurately ripped
13 | (6/6) Accurately ripped
14 | (5/6) Accurately ripped, or (1/6) differs in 4 samples @01:34:67
[AccurateRip ID: 002ccfa9-01d87560-d4123c0e] found.
Track [ CRC | V2 ] Status
01 [b4ef0667|4f3babb7] (2+5/9) Accurately ripped
02 [b55837b5|7cbb76c5] (2+5/9) Accurately ripped
03 [0fe1257b|7ea3223f] (2+4/8) Accurately ripped
04 [55771f1a|ee912476] (2+4/8) Accurately ripped
05 [f32af6d6|6360f1a3] (2+4/8) Accurately ripped
06 [84411840|cf0514ad] (2+4/8) Accurately ripped
07 [a189b44a|2b38f391] (2+4/8) Accurately ripped
08 [7afe34df|d3e9920a] (2+4/8) Accurately ripped
09 [1f3370bc|4258abbe] (2+4/8) Accurately ripped
10 [8204ce68|c32b78c9] (2+4/8) Accurately ripped
11 [8c622a56|0f9f9de0] (2+4/8) Accurately ripped
12 [9d1915b3|0c9e2038] (2+4/8) Accurately ripped
13 [9567e0bf|47c5f54e] (2+4/8) Accurately ripped
14 [f5215a3b|186a4179] (2+4/8) Accurately ripped
Offsetted by -664:
01 [833f36b7] (2/9) Accurately ripped
02 [3117e6ad] (2/9) Accurately ripped
03 [a8e087fb] (2/8) Accurately ripped
04 [9e3be00a] (2/8) Accurately ripped
05 [849b197d] (2/8) Accurately ripped
06 [cff57b17] (2/8) Accurately ripped
07 [3acecda8] (2/8) Accurately ripped
08 [226c24f7] (2/8) Accurately ripped
09 [a52f44c4] (2/8) Accurately ripped
10 [e3f20d78] (2/8) Accurately ripped
11 [aa142d2e] (2/8) Accurately ripped
12 [9ac9ddc3] (2/8) Accurately ripped
13 [c4ad9e5f] (2/8) Accurately ripped
14 [8053b2d3] (2/8) Accurately ripped

Track Peak [ CRC32 ] [W/O NULL] [ LOG ]
– 100,0 [92C9F4E3] [CA810AA9] CRC32
01 98,8 [32A0B1D7] [0AE42426]
02 98,8 [5F432AE8] [BBAD152E]
03 100,0 [D3B4C440] [D1AC771F]
04 98,8 [9393E303] [C818CB61]
05 93,3 [1DAA7922] [E7B50E3C]
06 100,0 [486C0BF1] [57CD57EC]
07 98,8 [119397E0] [8E5186A8]
08 95,7 [3B1EC517] [6463205A]
09 97,1 [8AD0C60E] [2C72117E]
10 98,8 [9C175E58] [0EB62756]
11 91,8 [F915592F] [1AB87EFB]
12 62,6 [1C6537C8] [C9D55099]
13 79,4 [D0844DC6] [A3F2B408]
14 71,7 [5365D0BC] [ECE2B957]


Keith Emerson - Hammer It Out: The Anthology (2006)

All thanks go to the original releaser

Keith Emerson in my Blog

Download Keith Emerson - Hammer It Out: The Anthology (2006):