Tags
Language
Tags

Jukka-Pekka Saraste, WDR Sinfonieorchester Köln - Bruckner: Symphony No. 8 (2016)

Posted By: tirexiss
Jukka-Pekka Saraste, WDR Sinfonieorchester Köln - Bruckner: Symphony No. 8 (2016)

Jukka-Pekka Saraste, WDR Sinfonieorchester Köln - Bruckner: Symphony No. 8 (2016)
EAC | FLAC (image+.cue, log) | Covers Included | 74:38 | 296 MB
Genre: Classical | Label: Profil | Catalog: PH16061

When conductors choose to perform a Bruckner symphony, they either use the original version, in the belief that it reflects the composer's true intentions, or select one of the later revisions, which are solidly established in the repertoire. For this 2016 Profil release, Jukka-Pekka Saraste has made an interesting compromise by choosing Robert Haas' edition of the 1890 revision of the Symphony No. 8 in C minor, which avoids the awkward moments in the original 1887 version, yet preserves some felicities that Bruckner omitted in subsequent versions. This may not mean much to the average listener, and for the most part, this version is quite close to most recordings made prior to the 1990s, so anyone who grew up on Bruckner before the millennium will find it more or less familiar and completely satisfying. Saraste leads the WDR Sinfonieorchester Koln in this performance for radio broadcast, and he states that it is a privilege to conduct this orchestra, which made many great Bruckner recordings under Gunter Wand. If there is a little of Wand's style in Saraste's expansive phrasing and warm orchestral blend, it may be because he grew up listening to Wand's recordings, so it's fair to say that he is keeping a great tradition alive. The performance rates high marks for Saraste's scrupulous interpretation and the orchestra's committed playing, though the recorded sound is a little distant and homogenized. – Blair Sanderson

Jukka-Pekka Saraste, WDR Sinfonieorchester Köln - Bruckner: Symphony No. 8 (2016)

Track List:

Anton Bruckner

Symphony No.8 (1890)
01. Allegro Moderato
02. Scherzo. Allegro Moderato
03. Adagio, Feierlich Langsam, Doch Nicht
04. Finale, Feierlich, Nicht Schnell

Performers:
WDR Sinfonieorchester Köln
Jukka-Pekka Saraste, conductor

Exact Audio Copy V1.1 from 23. June 2015

EAC extraction logfile from 23. February 2017, 22:46

WDR Sinfonieorchester Köln, Jukka-Pekka Saraste / Bruckner - Symphony No.8

Used drive : HL-DT-STDVDRAM GU70N Adapter: 1 ID: 0

Read mode : Secure
Utilize accurate stream : Yes
Defeat audio cache : Yes
Make use of C2 pointers : No

Read offset correction : 48
Overread into Lead-In and Lead-Out : No
Fill up missing offset samples with silence : Yes
Delete leading and trailing silent blocks : No
Null samples used in CRC calculations : Yes
Used interface : Native Win32 interface for Win NT & 2000

Used output format : User Defined Encoder
Selected bitrate : 128 kBit/s
Quality : High
Add ID3 tag : No
Command line compressor : C:\Program Files (x86)\Exact Audio Copy\Flac\flac.exe
Additional command line options : -V -8 -T "Date=%year%" -T "Genre=%genre%" %source%


TOC of the extracted CD

Track | Start | Length | Start sector | End sector
––––––––––––––––––––––––––––-
1 | 0:00.00 | 13:39.74 | 0 | 61498
2 | 13:39.74 | 15:29.53 | 61499 | 131226
3 | 29:09.52 | 24:02.24 | 131227 | 239400
4 | 53:12.01 | 21:24.02 | 239401 | 335702


Range status and errors

Selected range

Filename C:\temp\Bruckner - Symphony No.8 - Saraste\Bruckner - Symphony No.8.wav

Peak level 98.7 %
Extraction speed 2.2 X
Range quality 99.9 %
Test CRC 0C95BB29
Copy CRC 0C95BB29
Copy OK

No errors occurred


AccurateRip summary

Track 1 not present in database
Track 2 not present in database
Track 3 not present in database
Track 4 not present in database

None of the tracks are present in the AccurateRip database

End of status report

==== Log checksum 0A4C0E3D8E846D8F91E40CD18DDF90DC87F50584D902AD767346515C843BB3F5 ====

[CUETools log; Date: 24.11.2017 9:56:13; Version: 2.1.5]
[CTDB TOCID: d4K9oeAh5x9m2LjEQcAYYMc1j9o-] found.
Track | CTDB Status
1 | (7/7) Accurately ripped
2 | (7/7) Accurately ripped
3 | (7/7) Accurately ripped
4 | (7/7) Accurately ripped
[AccurateRip ID: 000bb756-00301b9f-2c117c04] disk not present in database.

Track Peak [ CRC32 ] [W/O NULL] [ LOG ]
– 98,7 [0C95BB29] [58FFB71A] CRC32
01 86,3 [B324833E] [BD215AE9]
02 69,7 [EC5B0B30] [D337A430]
03 98,7 [7A26DBB7] [2E753DBB]
04 69,1 [9A0B14AD] [B3443275]

Thanks to the Original ripper A-Z!

Download: