Subcategories
Tags
Language
Tags

John Abercrombie - Wait Till You See Her (2009) {ECM 2102}

Posted By: tiburon
John Abercrombie - Wait Till You See Her (2009) {ECM 2102}

John Abercrombie - Wait Till You See Her (2009) {ECM 2102}
EAC 0.99pb4 | FLAC Image | Cue+Log | Full Scans 300dpi | 292MB + 5% Recovery
MP3 CBR 320 Kbps | 141MB + 5% Recovery
Genre: Jazz, Fusion, Post-Bop

John Abercrombie's longstanding partnership with Mark Feldman has yielded several albums of exquisite music, and Wait Till You See Her is no different. The mood is naturally restrained, contemplative, and introspective as you would expect, while there's a common thread of healthy respect that keeps the quartet in the softer mezzo piano range. With acoustic bassist Thomas Morgan and the irrepressible drummer Joey Baron, the electric guitarist and violinist weave their way through one standard and seven originals from Abercrombie that comes straight from the heart.
Track List
01. Sad Song 7:13
02. Line-Up 7:16
03. Wait Till You See Her 5:40
04. Trio 5:10
05. I've Overlooked Before 7:28
06. Anniversary Waltz 9:25
07. Out Of Towner 6:11
08. Chic Of Araby 8:22

musicians
John Abercrombie - guitar
Mark Feldman - violin
Thomas Morgan - double-bass
Joey Baron - drums

Produced by Manfred Eicher


Exact Audio Copy V0.99 prebeta 4 from 23. January 2008

EAC extraction logfile from 7. October 2009, 21:00

John Abercrombie / Wait Till You See Her

Used drive : MATSHITADVD-RAM UJ-875S Adapter: 1 ID: 0

Read mode : Secure
Utilize accurate stream : Yes
Defeat audio cache : Yes
Make use of C2 pointers : No

Read offset correction : 102
Overread into Lead-In and Lead-Out : No
Fill up missing offset samples with silence : Yes
Delete leading and trailing silent blocks : No
Null samples used in CRC calculations : Yes
Used interface : Installed external ASPI interface

Used output format : User Defined Encoder
Selected bitrate : 320 kBit/s
Quality : High
Add ID3 tag : No
Command line compressor : C:\Program Files\Exact Audio Copy\Flac\flac.exe
Additional command line options : –best -V -T "date=%y" -T "genre=%m" %s


TOC of the extracted CD

Track | Start | Length | Start sector | End sector
––––––––––––––––––––––––––––-
1 | 0:00.00 | 7:15.36 | 0 | 32660
2 | 7:15.36 | 7:18.10 | 32661 | 65520
3 | 14:33.46 | 5:44.18 | 65521 | 91338
4 | 20:17.64 | 5:14.13 | 91339 | 114901
5 | 25:32.02 | 7:31.02 | 114902 | 148728
6 | 33:03.04 | 9:29.40 | 148729 | 191443
7 | 42:32.44 | 6:14.52 | 191444 | 219545
8 | 48:47.21 | 8:22.35 | 219546 | 257230


Range status and errors

Selected range

Filename D:\MY MUSIC\John Abercrombie - Wait Till You See Her.wav

Peak level 98.7 %
Range quality 100.0 %
Test CRC 25453F8F
Copy CRC 25453F8F
Copy OK

No errors occurred


AccurateRip summary

Track 1 not present in database
Track 2 not present in database
Track 3 not present in database
Track 4 not present in database
Track 5 not present in database
Track 6 not present in database
Track 7 not present in database
Track 8 not present in database

None of the tracks are present in the AccurateRip database

End of status report


––––––––––––––––––––––––––––––––––––––––
Analyzed: John Abercrombie / Wait Till You See Her
––––––––––––––––––––––––––––––––––––––––

DR Peak RMS Duration Track
––––––––––––––––––––––––––––––––––––––––
DR13 -4.38 dB -22.28 dB 7:15 01-Sad Song
DR16 -0.83 dB -21.08 dB 7:18 02-Line-Up
DR11 -4.46 dB -22.24 dB 5:44 03-Wait Till You See Her
DR16 -0.12 dB -18.21 dB 5:14 04-Trio
DR16 -0.12 dB -21.66 dB 7:31 05-I've Overlooked Before
DR16 -0.11 dB -19.01 dB 9:30 06-Anniversary Waltz
DR16 -0.12 dB -17.54 dB 6:15 07-Out Of Towner
DR14 -0.28 dB -17.71 dB 8:22 08-Chic Of Araby
––––––––––––––––––––––––––––––––––––––––

Number of tracks: 8
Official DR value: DR15

Samplerate: 44100 Hz
Channels: 2
Bits per sample: 16
Bitrate: 689 kbps
Codec: FLAC
================================================================================

John Abercrombie - Wait Till You See Her (2009) {ECM 2102}
John Abercrombie - Wait Till You See Her (2009) {ECM 2102}
John Abercrombie - Wait Till You See Her (2009) {ECM 2102}


Thanks to the original ripper