Subcategories
Tags
Language
Tags

Jesus Christ Superstar - Live Arena Tour (2012)

Posted By: Tavaz
Jesus Christ Superstar - Live Arena Tour (2012)

Jesus Christ Superstar - Live Arena Tour (2012)
MKV | 1920x1080 | English | H264 @ 9005 kbps | DTS @ 1509 kbps | 1 h 44 min | 7.64 GiB
MKV | 1280x720 | English | H264 @ 4498 kbps | DTS @ 1509 kbps | 1 h 44 min | 4.37 GiB
Genre: Musical

If you missed it on YouTube. ;-)

Celebrating 40 years since it first opened in London’s West End, Andrew Lloyd Webber’s new production of Jesus Christ Superstar, directed by Laurence Connor, promises to be the rock event of 2012. The star-studded line-up includes award-winning musical comedian Tim Minchin for the role of Judas Iscariot. Three million album selling pop icon and former Spice Girl Melanie C will take the only female lead as Mary Magdalene. Former BBC Radio 1 Breakfast Show host Chris Moyles will make his major stage debut as King Herod and Winner of the ITV primetime show Superstar Ben Forster in the title role of Jesus in the 21st century Rock Musical re-invention of Jesus Christ Superstar.

fkkhd-jcslat-1080p-x264.mkv (7.6 GB)



General
Unique ID : 175999653698169372912973759944749916153 (0x84684CE228A47C0384A0AE79A1129FF9)
Complete name : ./fkkhd-jcslat-1080p-x264.mkv
Format : Matroska
Format version : Version 2
File size : 7.64 GiB
Duration : 1 h 44 min
Overall bit rate : 10.5 Mb/s
Encoded date : UTC 2013-01-05 12:21:22
Writing application : mkvmerge v5.8.0 ('No Sleep / Pillow') built on Sep 2 2012 15:37:04
Writing library : libebml v1.2.3 + libmatroska v1.3.0

Video
ID : 1
Format : AVC
Format/Info : Advanced Video Codec
Format profile : High@L4.1
Format settings : CABAC / 4 Ref Frames
Format settings, CABAC : Yes
Format settings, RefFrames : 4 frames
Codec ID : V_MPEG4/ISO/AVC
Duration : 1 h 44 min
Bit rate : 9 005 kb/s
Width : 1 920 pixels
Height : 1 080 pixels
Display aspect ratio : 16:9
Frame rate mode : Constant
Frame rate : 25.000 FPS
Color space : YUV
Chroma subsampling : 4:2:0
Bit depth : 8 bits
Scan type : Progressive
Bits/(Pixel*Frame) : 0.174
Stream size : 6.39 GiB (84%)
Writing library : x264 core 129 r2230 1cffe9f
Encoding settings : cabac=1 / ref=4 / deblock=1:0:0 / analyse=0x3:0x133 / me=umh / subme=7 / psy=1 / psy_rd=1.00:0.00 / mixed_ref=1 / me_range=16 / chroma_me=1 / trellis=1 / 8x8dct=1 / cqm=0 / deadzone=21,11 / fast_pskip=0 / chroma_qp_offset=-2 / threads=12 / lookahead_threads=2 / sliced_threads=0 / nr=0 / decimate=1 / interlaced=0 / bluray_compat=0 / constrained_intra=0 / bframes=3 / b_pyramid=2 / b_adapt=2 / b_bias=0 / direct=3 / weightb=1 / open_gop=0 / weightp=2 / keyint=250 / keyint_min=25 / scenecut=40 / intra_refresh=0 / rc_lookahead=50 / rc=2pass / mbtree=1 / bitrate=9005 / ratetol=1.0 / qcomp=0.60 / qpmin=0 / qpmax=69 / qpstep=4 / cplxblur=20.0 / qblur=0.5 / ip_ratio=1.40 / aq=1:1.00
Language : English
Default : Yes
Forced : No

Audio
ID : 2
Format : DTS
Format/Info : Digital Theater Systems
Mode : 16
Format settings, Endianness : Big
Codec ID : A_DTS
Duration : 1 h 44 min
Bit rate mode : Constant
Bit rate : 1 509 kb/s
Channel(s) : 6 channels
Channel positions : Front: L C R, Side: L R, LFE
Sampling rate : 48.0 kHz
Frame rate : 93.750 FPS (512 SPF)
Bit depth : 24 bits
Compression mode : Lossy
Stream size : 1.10 GiB (14%)
Language : English
Default : Yes
Forced : No

Menu
00:00:00.000 : en:00:00:00.000
00:04:59.200 : en:00:04:59.200
00:09:30.840 : en:00:09:30.840
00:12:03.680 : en:00:12:03.680
00:13:44.480 : en:00:13:44.480
00:18:04.800 : en:00:18:04.800
00:21:45.280 : en:00:21:45.280
00:24:43.720 : en:00:24:43.720
00:28:06.600 : en:00:28:06.600
00:30:09.120 : en:00:30:09.120
00:31:47.960 : en:00:31:47.960
00:37:03.920 : en:00:37:03.920
00:37:38.840 : en:00:37:38.840
00:41:29.040 : en:00:41:29.040
00:47:26.200 : en:00:47:26.200
00:54:46.560 : en:00:54:46.560
01:01:26.800 : en:01:01:26.800
01:04:22.000 : en:01:04:22.000
01:05:49.360 : en:01:05:49.360
01:08:33.960 : en:01:08:33.960
01:12:42.840 : en:01:12:42.840
01:15:27.640 : en:01:15:27.640
01:20:56.640 : en:01:20:56.640
01:27:22.800 : en:01:27:22.800
01:31:58.960 : en:01:31:58.960
01:33:54.960 : en:01:33:54.960
01:36:54.840 : en:01:36:54.840





Jesus Christ Superstar - Live Arena Tour (2012)


Jesus Christ Superstar - Live Arena Tour (2012)


Jesus Christ Superstar - Live Arena Tour (2012)


Jesus Christ Superstar - Live Arena Tour (2012)


Jesus Christ Superstar - Live Arena Tour (2012)