Tags
Language
Tags
April 2024
Su Mo Tu We Th Fr Sa
31 1 2 3 4 5 6
7 8 9 10 11 12 13
14 15 16 17 18 19 20
21 22 23 24 25 26 27
28 29 30 1 2 3 4

Glen Hall - Hallucinations (1999)

Posted By: v3122
Glen Hall - Hallucinations (1999)

Glen Hall - Hallucinations (1999)
EAC | Flac(Image) + Cue + Log & MP3 CBR 320Kbps
Leo Records, LR 273 | ~ 360 or 174 Mb | Artwork(jpg) -> 98 Mb
Free Jazz, Ambient

~ All compositions recorded "live" February 28-March 2, 1997, at the Music Gallery, Toronto ~

Hall calls this a "sonic film, " which he describes as a movie made of sound: in this case, inspired by two novels by William Burroughs, Nova Express and The Wild Boys. To do this, Hall - a saxophonist who doubles on bass flute, bass clarinet, and electronics - manipulates sounds, offers snippets of the voice of Burroughs, and reads his own inspired writings. The results are astonishing, as ambient sounds meet cut-ups and raucous jazz in an effort worthy of the master to whom it pays tribute. It doesn't hurt to have trombonist Roswell Rudd as the primary soloist on most of the fourteen tracks, aided along the way by assorted guitars and percussion. Lovingly produced and musically sophisticated, this recording should delight Burroughs aficionados and spur others to explore his work.

by Steve Loewy, allmusic
Glen Hall - Hallucinations (1999)):

Glen Hall - Hallucinations (1999)

Tracklist:

01. Alamout (Hall - voice)
02. Hallucinations (Gzowski - oud; Hall - bass flute)
03. Cut-Up (Hall - tenor sax; Rudd - trombone; Ratcliff, Gzowski - guitars)
04. Grey Fingers ( (Merril - voice)
05. Splintered Carnival (Rudd - trombone; Molnar - marimba; Gzowski - guitar)
06. Photo Falling, Word Falling (Hall - tenor sax; Rudd - trombone; Perera - guitar)
07. El Hombre Invisible (Rudd - trombone; Ratcliff - guitar; Molnar - vibes)
08. The Book of the Dead (Hall - voice)
09. The Blue Desert of Silence (ensemble)
10. A Few Questions for CONTROL (Hall -voice)
11. The Ant Hill (Molnar - marimba; Rudd - trombone)
12. Uranian Willy (He Wised Up the Marks) (Ratcliff - slide guitar; Rudd - trombone)
13. Wild Boys (Ratcliff - guitar; Rudd- trombone; Gzowski - guitar; Hall - tenor sax; Perera - guitar)
14. Virus Powers (The Book of the Word) (Hall - tenor sax; Rudd - trombone)

Musicians:

Glen Hall - tenor and soprano saxophones, bass flute, bass clarinet, electronics, samples, voices
Roswell Rudd - trombone
Handslang (Nilan Perera - guitar; Rob Clutton - bass; John Lennard - drums)
Barry Elmes - drums
John Gzowski - guitar, oud, soprano guitar, electric dowl
Geordie McDonald - percussion
Judith Merril - voice
Allan Molnar - vibes, marimba
Kim Ratcliff - guitar, slide guitar, banjo
Don Thompson - bass, piano


Exact Audio Copy V1.0 beta 2 from 29. April 2011

EAC extraction logfile from 12. November 2011, 14:21

Glen Hall / Hallucinations

Used drive : TSSTcorpCDDVDW SH-S222A Adapter: 1 ID: 0

Read mode : Secure
Utilize accurate stream : Yes
Defeat audio cache : Yes
Make use of C2 pointers : No

Read offset correction : 6
Overread into Lead-In and Lead-Out : No
Fill up missing offset samples with silence : Yes
Delete leading and trailing silent blocks : No
Null samples used in CRC calculations : Yes
Used interface : Native Win32 interface for Win NT & 2000
Gap handling : Appended to previous track

Used output format : User Defined Encoder
Selected bitrate : 896 kBit/s
Quality : High
Add ID3 tag : No
Command line compressor : C:\Tool\CD\EAC10\FLAC\FLAC.EXE
Additional command line options : -6 -V -T "ARTIST=%artist%" -T "TITLE=%title%" -T "ALBUM=%albumtitle%" -T "DATE=%year%" -T "TRACKNUMBER=%tracknr%" -T "GENRE=%genre%" -T "COMMENT=%comment%" -T "BAND=%albuminterpret%" -T "COMPOSER=%composer%" %haslyrics%–ta


TOC of the extracted CD

Track | Start | Length | Start sector | End sector
––––––––––––––––––––––––––––-
1 | 0:00.00 | 4:26.03 | 0 | 19952
2 | 4:26.03 | 5:14.69 | 19953 | 43571
3 | 9:40.72 | 8:53.04 | 43572 | 83550
4 | 18:34.01 | 2:24.28 | 83551 | 94378
5 | 20:58.29 | 6:26.20 | 94379 | 123348
6 | 27:24.49 | 5:12.61 | 123349 | 146809
7 | 32:37.35 | 5:05.72 | 146810 | 169756
8 | 37:43.32 | 4:57.44 | 169757 | 192075
9 | 42:41.01 | 2:52.20 | 192076 | 204995
10 | 45:33.21 | 4:59.46 | 204996 | 227466
11 | 50:32.67 | 6:38.24 | 227467 | 257340
12 | 57:11.16 | 8:45.20 | 257341 | 296735
13 | 65:56.36 | 2:20.71 | 296736 | 307306
14 | 68:17.32 | 5:16.55 | 307307 | 331061


Track 1

Filename C:\! UPLOAD\Glen Hall - Hallucinations (1999) [FLAC] {Leo}\01 - Alamout.wav

Pre-gap length 0:00:02.00

Peak level 100.0 %
Extraction speed 3.3 X
Track quality 100.0 %
Test CRC 8C088893
Copy CRC 8C088893
Track not present in AccurateRip database
Copy OK

Track 2

Filename C:\! UPLOAD\Glen Hall - Hallucinations (1999) [FLAC] {Leo}\02 - Hallucinations.wav

Pre-gap length 0:00:00.45

Peak level 97.1 %
Extraction speed 3.3 X
Track quality 100.0 %
Test CRC 503D1A43
Copy CRC 503D1A43
Track not present in AccurateRip database
Copy OK

Track 3

Filename C:\! UPLOAD\Glen Hall - Hallucinations (1999) [FLAC] {Leo}\03 - Cut-Up.wav

Pre-gap length 0:00:01.45

Peak level 100.0 %
Extraction speed 3.4 X
Track quality 100.0 %
Test CRC CC7A2AB1
Copy CRC CC7A2AB1
Track not present in AccurateRip database
Copy OK

Track 4

Filename C:\! UPLOAD\Glen Hall - Hallucinations (1999) [FLAC] {Leo}\04 - Grey Fingers.wav

Pre-gap length 0:00:00.20

Peak level 100.0 %
Extraction speed 2.6 X
Track quality 100.0 %
Test CRC 293919F4
Copy CRC 293919F4
Track not present in AccurateRip database
Copy OK

Track 5

Filename C:\! UPLOAD\Glen Hall - Hallucinations (1999) [FLAC] {Leo}\05 - Splintered Carnival.wav

Pre-gap length 0:00:01.45

Peak level 100.0 %
Extraction speed 3.5 X
Track quality 100.0 %
Test CRC DCF9B150
Copy CRC DCF9B150
Track not present in AccurateRip database
Copy OK

Track 6

Filename C:\! UPLOAD\Glen Hall - Hallucinations (1999) [FLAC] {Leo}\06 - Photo Falling, Word Falling.wav

Pre-gap length 0:00:02.45

Peak level 100.0 %
Extraction speed 3.4 X
Track quality 100.0 %
Test CRC C9EA8EC3
Copy CRC C9EA8EC3
Track not present in AccurateRip database
Copy OK

Track 7

Filename C:\! UPLOAD\Glen Hall - Hallucinations (1999) [FLAC] {Leo}\07 - El Hombre Invisible.wav

Pre-gap length 0:00:02.45

Peak level 100.0 %
Extraction speed 3.4 X
Track quality 100.0 %
Test CRC A8BDBB07
Copy CRC A8BDBB07
Track not present in AccurateRip database
Copy OK

Track 8

Filename C:\! UPLOAD\Glen Hall - Hallucinations (1999) [FLAC] {Leo}\08 - The Book of the Dead.wav

Pre-gap length 0:00:01.20

Peak level 81.0 %
Extraction speed 3.4 X
Track quality 100.0 %
Test CRC 10768F32
Copy CRC 10768F32
Track not present in AccurateRip database
Copy OK

Track 9

Filename C:\! UPLOAD\Glen Hall - Hallucinations (1999) [FLAC] {Leo}\09 - The Blue Desert of Silence.wav

Pre-gap length 0:00:01.45

Peak level 30.2 %
Extraction speed 3.2 X
Track quality 100.0 %
Test CRC 622D584C
Copy CRC 622D584C
Track not present in AccurateRip database
Copy OK

Track 10

Filename C:\! UPLOAD\Glen Hall - Hallucinations (1999) [FLAC] {Leo}\10 - A Few Questions for CONTROL.wav

Pre-gap length 0:00:00.45

Peak level 100.0 %
Extraction speed 3.4 X
Track quality 100.0 %
Test CRC 9E9A09B9
Copy CRC 9E9A09B9
Track not present in AccurateRip database
Copy OK

Track 11

Filename C:\! UPLOAD\Glen Hall - Hallucinations (1999) [FLAC] {Leo}\11 - The Ant Hill.wav

Pre-gap length 0:00:00.20

Peak level 100.0 %
Extraction speed 3.5 X
Track quality 100.0 %
Test CRC F1BA01E9
Copy CRC F1BA01E9
Track not present in AccurateRip database
Copy OK

Track 12

Filename C:\! UPLOAD\Glen Hall - Hallucinations (1999) [FLAC] {Leo}\12 - Uranian Willy (He Wised Up the Marks).wav

Pre-gap length 0:00:00.20

Peak level 100.0 %
Extraction speed 3.6 X
Track quality 100.0 %
Test CRC 1CF7EDC4
Copy CRC 1CF7EDC4
Track not present in AccurateRip database
Copy OK

Track 13

Filename C:\! UPLOAD\Glen Hall - Hallucinations (1999) [FLAC] {Leo}\13 - Wild Boys.wav

Pre-gap length 0:00:01.45

Peak level 100.0 %
Extraction speed 3.0 X
Track quality 100.0 %
Test CRC B7464C7C
Copy CRC B7464C7C
Track not present in AccurateRip database
Copy OK

Track 14

Filename C:\! UPLOAD\Glen Hall - Hallucinations (1999) [FLAC] {Leo}\14 - Virus Powers (The Book of the Word).wav

Pre-gap length 0:00:00.45

Peak level 100.0 %
Extraction speed 2.9 X
Track quality 99.9 %
Test CRC 104BE3A8
Copy CRC 104BE3A8
Track not present in AccurateRip database
Copy OK


None of the tracks are present in the AccurateRip database

No errors occurred

End of status report

–– CUETools DB Plugin V2.1.2

[CTDB TOCID: Hrc_a58v9qrHh4RsdFonlqy.388-] disk not present in database, Submit result: Hrc_a58v9qrHh4RsdFonlqy.388- has been uploaded


==== Log checksum 2CC5D6ECB6D0DAFA9E0DFBA663BF47A22654CDA48B7D220CFB101B2532EA248F ====


[CUETools log; Date: 09.01.2019 12:03:34; Version: 2.1.4]
[AccurateRip ID: 00261f34-0195d75b-d2113e0e] found.
Track [ CRC | V2 ] Status
01 [b0b84564|10809879] (0+1/1) Accurately ripped
02 [22b8a9de|e39792f7] (0+1/1) Accurately ripped
03 [5b12cbde|2c155326] (0+1/1) Accurately ripped
04 [772a0271|66ab0c0d] (0+1/1) Accurately ripped
05 [7aae10ae|41c02c78] (0+1/1) Accurately ripped
06 [5df8a9c5|c8a58750] (0+1/1) Accurately ripped
07 [7cfa5853|ec18cae8] (0+1/1) Accurately ripped
08 [90798a55|6d41ce3b] (0+1/1) Accurately ripped
09 [5ae3eed3|e7d9bc1d] (0+1/1) Accurately ripped
10 [72f97210|e02de397] (0+1/1) Accurately ripped
11 [8ffed454|777c880a] (0+1/1) Accurately ripped
12 [a433c237|3b53c7d7] (0+1/1) Accurately ripped
13 [ebb50e76|076f4277] (0+1/1) Accurately ripped
14 [d3123f37|4a64b564] (0+1/1) Accurately ripped

Track Peak [ CRC32 ] [W/O NULL] [ LOG ]
– 100,0 [452428FD] [C18015D9]
01 100,0 [8C088893] [BCE9CD08] CRC32
02 97,1 [503D1A43] [AF07D80D] CRC32
03 100,0 [CC7A2AB1] [C49EABF1] CRC32
04 100,0 [293919F4] [67134706] CRC32
05 100,0 [DCF9B150] [90EBD89D] CRC32
06 100,0 [C9EA8EC3] [A5EC748F] CRC32
07 100,0 [A8BDBB07] [D316EC65] CRC32
08 81,0 [10768F32] [6A5F33FF] CRC32
09 30,2 [622D584C] [7C11A9EA] CRC32
10 100,0 [9E9A09B9] [7FF343DC] CRC32
11 100,0 [F1BA01E9] [8F047D9D] CRC32
12 100,0 [1CF7EDC4] [1F87C182] CRC32
13 100,0 [B7464C7C] [4A053448] CRC32
14 100,0 [104BE3A8] [B5B53A44] CRC32


Glen Hall - Hallucinations (1999)

All thanks go to the original releaser

Download Glen Hall - Hallucinations (1999):