Subcategories
Tags
Language
Tags

Guru - Jazzmatazz Volume 1 (1993) {Chrysalis/EMI Records Group} **[RE-UP]**

Posted By: TestTickles
Guru - Jazzmatazz Volume 1 (1993) {Chrysalis/EMI Records Group} **[RE-UP]**

Guru - Jazzmatazz Volume 1 (1993) {Chrysalis/EMI Records Group}
EAC Rip | FLAC with CUE and log | scans | 269 mb
MP3 CBR 320kbps | RAR | 102 mb
Genre: hip-hop, rap

Jazzmatazz Volume 1 is the 1993 debut album from American artist Keith Elam, who was better known as rapper Guru from Gang Starr. This was a very successful project teaming him up with real jazz musicians and mixing songs up with jazz samples, a bit more than where he could with Gang Starr. This was released by Chrysalis/EMI Records Group.

Guru - Jazzmatazz Volume 1 (1993) {Chrysalis/EMI Records Group} **[RE-UP]**

1. Introduction
2. Loungin' (featURING Donald Byrd)
3. When You're Near (featuring N'Dea Davenport)
4. Transit Ride (featuring Branford Marsalis)
5. No Time To Play featuring Ronny Jordan)
6. Down The Backstreets (featuring Lonnie Liston Smith)
7. Respectful Dedications
8. Take A Look (featuring Roy Ayers)
9. Trust Me (featuring N'Dea Davenport)
10. Slicker Than Most
11. Le Bien, Le Mal (featuring MC Solaar)
12. Sights In The City (featuring Carleen Anderson)

All songs produced, arranged, and mixed by Guru exceept:
"Le Bien, La Mal" co-produced by MC Solaar & DJ Jimmy Jay
Engineered in New York by Kieran Walsh, Joe Quinde, and Craig Marcus, assisted by Luke Allen and David Carpenter
Engineered in London by James Bell, assisted by Tracii D. Shermon
Engineered in Los Angeles by James B. Mansfield, assisted by Doug Boehm
Engineered in Paris by Zdar Cerbonschi, assisted by Phillippe

Mastered by Tony Dowsey

Exact Audio Copy V1.1 from 23. June 2015

EAC extraction logfile from 3. December 2016, 8:50

Guru / Jazzmatazz Volume 1

Used drive : TEAC DVD-ROM DV-28SW Adapter: 1 ID: 0

Read mode : Secure
Utilize accurate stream : Yes
Defeat audio cache : Yes
Make use of C2 pointers : No

Read offset correction : 6
Overread into Lead-In and Lead-Out : No
Fill up missing offset samples with silence : Yes
Delete leading and trailing silent blocks : No
Null samples used in CRC calculations : Yes
Used interface : Native Win32 interface for Win NT & 2000
Gap handling : Appended to previous track

Used output format : Internal WAV Routines
Sample format : 44.100 Hz; 16 Bit; Stereo


TOC of the extracted CD

Track | Start | Length | Start sector | End sector
––––––––––––––––––––––––––––-
1 | 0:00.00 | 1:20.05 | 0 | 6004
2 | 1:20.05 | 4:39.62 | 6005 | 26991
3 | 5:59.67 | 4:03.28 | 26992 | 45244
4 | 10:03.20 | 3:58.02 | 45245 | 63096
5 | 14:01.22 | 4:54.48 | 63097 | 85194
6 | 18:55.70 | 4:47.65 | 85195 | 106784
7 | 23:43.60 | 0:54.20 | 106785 | 110854
8 | 24:38.05 | 3:59.07 | 110855 | 128786
9 | 28:37.12 | 4:27.65 | 128787 | 148876
10 | 33:05.02 | 2:37.38 | 148877 | 160689
11 | 35:42.40 | 3:22.15 | 160690 | 175854
12 | 39:04.55 | 5:10.62 | 175855 | 199166


Track 1

Filename C:\My Documents\My FLAC\Guru - Jazzmatazz Volume 1 (1993) [FLAC] {Chrysalis, EMI Records Group}\01 - Introduction.wav

Pre-gap length 0:00:02.00

Peak level 79.6 %
Extraction speed 2.1 X
Track quality 100.0 %
Test CRC 95C6F5F4
Copy CRC 95C6F5F4
Accurately ripped (confidence 2) [C66DFC16] (AR v2)
Copy OK

Track 2

Filename C:\My Documents\My FLAC\Guru - Jazzmatazz Volume 1 (1993) [FLAC] {Chrysalis, EMI Records Group}\02 - Loungin'.wav

Peak level 96.0 %
Extraction speed 2.5 X
Track quality 99.9 %
Test CRC 18EE96D9
Copy CRC 18EE96D9
Accurately ripped (confidence 2) [BA78A7A6] (AR v2)
Copy OK

Track 3

Filename C:\My Documents\My FLAC\Guru - Jazzmatazz Volume 1 (1993) [FLAC] {Chrysalis, EMI Records Group}\03 - When You're Near.wav

Peak level 94.9 %
Extraction speed 2.8 X
Track quality 99.9 %
Test CRC 39483572
Copy CRC 39483572
Accurately ripped (confidence 2) [ABB6BDBC] (AR v2)
Copy OK

Track 4

Filename C:\My Documents\My FLAC\Guru - Jazzmatazz Volume 1 (1993) [FLAC] {Chrysalis, EMI Records Group}\04 - Transit Ride.wav

Peak level 95.2 %
Extraction speed 2.9 X
Track quality 99.9 %
Test CRC 4AD6F4E6
Copy CRC 4AD6F4E6
Accurately ripped (confidence 2) [859065A3] (AR v2)
Copy OK

Track 5

Filename C:\My Documents\My FLAC\Guru - Jazzmatazz Volume 1 (1993) [FLAC] {Chrysalis, EMI Records Group}\05 - No Time To Play.wav

Peak level 96.0 %
Extraction speed 3.7 X
Track quality 100.0 %
Test CRC A391493F
Copy CRC A391493F
Accurately ripped (confidence 2) [0FF6D710] (AR v2)
Copy OK

Track 6

Filename C:\My Documents\My FLAC\Guru - Jazzmatazz Volume 1 (1993) [FLAC] {Chrysalis, EMI Records Group}\06 - Down The Backstreets.wav

Peak level 96.9 %
Extraction speed 4.0 X
Track quality 100.0 %
Test CRC A9078499
Copy CRC A9078499
Accurately ripped (confidence 2) [D21DE4AE] (AR v2)
Copy OK

Track 7

Filename C:\My Documents\My FLAC\Guru - Jazzmatazz Volume 1 (1993) [FLAC] {Chrysalis, EMI Records Group}\07 - Respectful Dedications.wav

Peak level 56.5 %
Extraction speed 2.7 X
Track quality 100.0 %
Test CRC 48857B29
Copy CRC 48857B29
Accurately ripped (confidence 2) [2964C924] (AR v2)
Copy OK

Track 8

Filename C:\My Documents\My FLAC\Guru - Jazzmatazz Volume 1 (1993) [FLAC] {Chrysalis, EMI Records Group}\08 - Take A Look (At Yourself).wav

Peak level 93.1 %
Extraction speed 4.1 X
Track quality 100.0 %
Test CRC 3A32D458
Copy CRC 3A32D458
Accurately ripped (confidence 2) [00F9D84F] (AR v2)
Copy OK

Track 9

Filename C:\My Documents\My FLAC\Guru - Jazzmatazz Volume 1 (1993) [FLAC] {Chrysalis, EMI Records Group}\09 - Trust Me.wav

Peak level 94.5 %
Extraction speed 4.3 X
Track quality 100.0 %
Test CRC 29BB6CD5
Copy CRC 29BB6CD5
Accurately ripped (confidence 2) [D9ECA39A] (AR v2)
Copy OK

Track 10

Filename C:\My Documents\My FLAC\Guru - Jazzmatazz Volume 1 (1993) [FLAC] {Chrysalis, EMI Records Group}\10 - Slicker Than Most.wav

Peak level 95.2 %
Extraction speed 3.9 X
Track quality 100.0 %
Test CRC 9EE34EC1
Copy CRC 9EE34EC1
Accurately ripped (confidence 2) [5A41000C] (AR v2)
Copy OK

Track 11

Filename C:\My Documents\My FLAC\Guru - Jazzmatazz Volume 1 (1993) [FLAC] {Chrysalis, EMI Records Group}\11 - Le Bien, Le Mal.wav

Peak level 98.2 %
Extraction speed 3.2 X
Track quality 99.9 %
Test CRC B9EDBBB0
Copy CRC B9EDBBB0
Accurately ripped (confidence 2) [B18AF3AA] (AR v2)
Copy OK

Track 12

Filename C:\My Documents\My FLAC\Guru - Jazzmatazz Volume 1 (1993) [FLAC] {Chrysalis, EMI Records Group}\12 - Sights In The City.wav

Peak level 96.6 %
Extraction speed 3.3 X
Track quality 100.0 %
Test CRC 24F4A5D1
Copy CRC 24F4A5D1
Accurately ripped (confidence 2) [83572EB2] (AR v2)
Copy OK


All tracks accurately ripped

No errors occurred

End of status report

–– CUETools DB Plugin V2.1.6

[CTDB TOCID: M1YPzMBOjaOeSQsWrhi6h146d24-] found
Submit result: M1YPzMBOjaOeSQsWrhi6h146d24- has been confirmed
Track | CTDB Status
1 | (1/1) Accurately ripped
2 | (1/1) Accurately ripped
3 | (1/1) Accurately ripped
4 | (1/1) Accurately ripped
5 | (1/1) Accurately ripped
6 | (1/1) Accurately ripped
7 | (1/1) Accurately ripped
8 | (1/1) Accurately ripped
9 | (1/1) Accurately ripped
10 | (1/1) Accurately ripped
11 | (1/1) Accurately ripped
12 | (1/1) Accurately ripped


==== Log checksum 6A8B5BCA92389ED8CA600CFBA55E7F97105FBB912EAE0D606E964E70F40AC13E ====


Guru - Jazzmatazz Volume 1 (1993) {Chrysalis/EMI Records Group} **[RE-UP]**