Subcategories

Felix Cavaliere - Dreams In Motion (1994)

Posted By: TestTickles
Felix Cavaliere - Dreams In Motion (1994)

Felix Cavaliere - Dreams In Motion (1994)
EAC Rip | FLAC with CUE and log | scans | 355 mb
MP3 CBR 320kbps | RAR | 142 mb
Genre: pop, rock, pop rock

Dreams In Motion is the 1994 album by The (Young) Rascals' vocalist Felix Cavaliere. This was released by Ka:Ram:Bō:La:Ge/MCA.
Faithfully co-produced with Don Was, Dreams In Motion is an album that shows the former (Young) Rascals to be in top form. while the music does not resemble anything he did in the 60's or 70's, it is a decent effort which shows how he did not lose his voice with age. Some of the people playing on this include Jeff Porcaro, Lenny Castro, Michael Landau, Stephen "Doc" Kupka, and various Was (Not Was) alumni.

Felix Cavaliere - Dreams In Motion (1994)

01. Trust Your Heart
02. Stay In Love
03. If Not For You
04. Voices Calling
05. Look Who's Alone Tonight
06. Dreams In Motion
07. Big Surprise
08. Me For You
09. You Mean More
10. Youngblood

Exact Audio Copy V0.99 prebeta 4 from 23. January 2008

EAC extraction logfile from 16. September 2008, 17:14

Felix Cavaliere / Dreams In Motion

Used drive : TSSTcorpDVD+-RW TS-H653B Adapter: 2 ID: 0

Read mode : Secure
Utilize accurate stream : Yes
Defeat audio cache : Yes
Make use of C2 pointers : No

Read offset correction : 6
Overread into Lead-In and Lead-Out : No
Fill up missing offset samples with silence : Yes
Delete leading and trailing silent blocks : No
Null samples used in CRC calculations : Yes
Used interface : Native Win32 interface for Win NT & 2000
Gap handling : Appended to previous track

Used output format : Internal WAV Routines
Sample format : 44.100 Hz; 16 Bit; Stereo


TOC of the extracted CD

Track | Start | Length | Start sector | End sector
––––––––––––––––––––––––––––-
1 | 0:00.37 | 4:51.63 | 37 | 21924
2 | 4:52.25 | 5:44.50 | 21925 | 47774
3 | 10:37.00 | 4:49.02 | 47775 | 69451
4 | 15:26.02 | 4:14.25 | 69452 | 88526
5 | 19:40.27 | 4:29.45 | 88527 | 108746
6 | 24:09.72 | 4:34.73 | 108747 | 129369
7 | 28:44.70 | 3:30.72 | 129370 | 145191
8 | 32:15.67 | 4:48.70 | 145192 | 166861
9 | 37:04.62 | 4:13.23 | 166862 | 185859
10 | 41:18.10 | 4:24.65 | 185860 | 205724


Track 1

Filename C:\FLAC\Felix Cavaliere - Dreams In Motion (1994) [FLAC]\01 - Trust Your Heart.wav

Pre-gap length 0:00:02.49

Peak level 100.0 %
Track quality 100.0 %
Test CRC E591C3E0
Copy CRC E591C3E0
Accurately ripped (confidence 1) [B91D1E5A]
Copy OK

Track 2

Filename C:\FLAC\Felix Cavaliere - Dreams In Motion (1994) [FLAC]\02 - Stay In Love.wav

Pre-gap length 0:00:02.73

Peak level 97.2 %
Track quality 99.9 %
Test CRC 3553C7CD
Copy CRC 3553C7CD
Accurately ripped (confidence 1) [5CB5F035]
Copy OK

Track 3

Filename C:\FLAC\Felix Cavaliere - Dreams In Motion (1994) [FLAC]\03 - If Not For You.wav

Pre-gap length 0:00:01.62

Peak level 97.2 %
Track quality 100.0 %
Test CRC 8B9DD7CC
Copy CRC 8B9DD7CC
Accurately ripped (confidence 1) [B711139F]
Copy OK

Track 4

Filename C:\FLAC\Felix Cavaliere - Dreams In Motion (1994) [FLAC]\04 - Voices Calling.wav

Pre-gap length 0:00:04.33

Peak level 97.2 %
Track quality 99.9 %
Test CRC 989FBACD
Copy CRC 989FBACD
Accurately ripped (confidence 1) [DEFD0ADE]
Copy OK

Track 5

Filename C:\FLAC\Felix Cavaliere - Dreams In Motion (1994) [FLAC]\05 - Look Who's Alone Tonight.wav

Pre-gap length 0:00:04.86

Peak level 97.2 %
Track quality 100.0 %
Test CRC CE5C957C
Copy CRC CE5C957C
Accurately ripped (confidence 1) [B0E72713]
Copy OK

Track 6

Filename C:\FLAC\Felix Cavaliere - Dreams In Motion (1994) [FLAC]\06 - Dreams In Motion.wav

Pre-gap length 0:00:03.49

Peak level 100.0 %
Track quality 100.0 %
Test CRC BF099171
Copy CRC BF099171
Accurately ripped (confidence 1) [F6E33572]
Copy OK

Track 7

Filename C:\FLAC\Felix Cavaliere - Dreams In Motion (1994) [FLAC]\07 - Big Surprise.wav

Pre-gap length 0:00:05.02

Peak level 97.2 %
Track quality 100.0 %
Test CRC 1DDB036E
Copy CRC 1DDB036E
Accurately ripped (confidence 1) [8CC9BB00]
Copy OK

Track 8

Filename C:\FLAC\Felix Cavaliere - Dreams In Motion (1994) [FLAC]\08 - Me For You.wav

Pre-gap length 0:00:02.22

Peak level 100.0 %
Track quality 100.0 %
Test CRC 14254D4F
Copy CRC 14254D4F
Accurately ripped (confidence 1) [A76D4376]
Copy OK

Track 9

Filename C:\FLAC\Felix Cavaliere - Dreams In Motion (1994) [FLAC]\09 - You Mean More.wav

Pre-gap length 0:00:03.22

Peak level 97.2 %
Track quality 100.0 %
Test CRC 877B17E0
Copy CRC 877B17E0
Accurately ripped (confidence 1) [32376563]
Copy OK

Track 10

Filename C:\FLAC\Felix Cavaliere - Dreams In Motion (1994) [FLAC]\10 - Youngblood.wav

Pre-gap length 0:00:03.96

Peak level 97.2 %
Track quality 100.0 %
Test CRC FA9BBD33
Copy CRC FA9BBD33
Accurately ripped (confidence 1) [1D8C31E7]
Copy OK


All tracks accurately ripped

No errors occurred

End of status report


Felix Cavaliere - Dreams In Motion (1994)