Tags
Language
Tags

Eric Martin - Mr. Vocalist X'mas (2009)

Posted By: v3122
Eric Martin - Mr. Vocalist X'mas (2009)

Eric Martin - Mr. Vocalist X'mas (2009)
EAC | Flac(Image) + Cue + Log & MP3 CBR 320Kbps
Sony Music, SICP 2422 | Japan | ~ 384 or 132 Mb | Scans(jpg) -> 26 Mb
Classic Rock / Pop Rock

Although Eric Martin is best-known as the lead singer of rock quartet Mr. Big, he was a seasoned music veteran before that outfit in 1988. Born on October 10, 1960, in Long Island, NY, Martin moved often during his childhood due to his father's career as an Army officer. When the family settled in San Francisco in 1976, Martin formed the band 415 with some high school friends. The band became a popular local draw, eventually opening for acts like Billy Squier, Molly Hatchet, and the Marshall Tucker Band, while still an unsigned act. Signed to Elektra Records, 415 changed its name to Eric Martin Band and issued the debut Sucker for a Pretty Face in 1983. Despite continuing to land high-profile gigs as support for some of the most popular acts at the time, such as Night Ranger and Journey, the album received a fairly tepid reception and the band split up in 1985. Martin contributed the track "I Can't Stop the Fire" to the movie soundtrack Teachers and released a self-titled solo album in 1985, which spawned a minor pop hit with "Information." In 1988, Martin joined forces with bass player Billy Sheehan, guitarist Paul Gilbert, and drummer Pat Torpey to form Mr. Big. The reputations of the players, particularly amongst fellow musicians, generated immediate interest and the band was signed to Atlantic Records in 1989. Recording three albums for the label in the late '80s/early '90s, Martin found success as Mr. Big had several pop hits, including "Just Take My Heart," a cover of Cat Stevens' "Wild World," and the number one "To Be With You," but they could never fully capitalize on their momentum in the States. They did retain a fervent following in Japan right up through the end of the decade. A second solo effort by Martin, Somewhere in the Middle, wasn't given a release in the U.S., but proved to be a strong seller in Japan and in late 2000, Spitfire Records released I'm Only Fooling Myself.

by Tom Demalon, allmusic
Eric Martin - Mr. Vocalist X'mas (2009)


Eric Martin - Mr. Vocalist X'mas (2009):

Eric Martin - Mr. Vocalist X'mas (2009)

Tracklist:

1. Christmas Eve
2. Winter Song
3. Itsuka No Merry Christmas
4. Christmas Carol No Koro Niha
5. Shiroi Koibitotachi
6. Silent Eve
7. Merry Christmas Mr. Lawrence
8. All I Want For Christmas Is You (Mariah Carey cover)
9. Happy Xmas (War Is Over) (duet with Miho Fukuhara) (John Lennon cover)
10. Last Christmas (Wham! Cover)
11. Do They Know It's Christmas? (Cover of Band-Aid 20)
12. White Christmas (Bing Crosby cover)

Exact Audio Copy V1.0 beta 1 from 15. November 2010

EAC extraction logfile from 1. April 2011, 7:57

Eric Martin / Mr. Vocalist X'mas

Used drive : ASUS DRW-24B1ST Adapter: 5 ID: 0

Read mode : Secure
Utilize accurate stream : Yes
Defeat audio cache : Yes
Make use of C2 pointers : No

Read offset correction : 6
Overread into Lead-In and Lead-Out : No
Fill up missing offset samples with silence : Yes
Delete leading and trailing silent blocks : No
Null samples used in CRC calculations : Yes
Used interface : Installed external ASPI interface

Used output format : User Defined Encoder
Selected bitrate : 1024 kBit/s
Quality : High
Add ID3 tag : No
Command line compressor : D:\Rec Install\lossless\lossless\Exact Audio Copy 0.9b4 + APE WV & FLAC Encoders\MAC.EXE
Additional command line options : -8 -V %s


TOC of the extracted CD

Track | Start | Length | Start sector | End sector
––––––––––––––––––––––––––––-
1 | 0:00.00 | 4:06.40 | 0 | 18489
2 | 4:06.40 | 4:31.19 | 18490 | 38833
3 | 8:37.59 | 6:13.39 | 38834 | 66847
4 | 14:51.23 | 4:36.05 | 66848 | 87552
5 | 19:27.28 | 4:40.51 | 87553 | 108603
6 | 24:08.04 | 4:42.57 | 108604 | 129810
7 | 28:50.61 | 4:27.22 | 129811 | 149857
8 | 33:18.08 | 4:05.58 | 149858 | 168290
9 | 37:23.66 | 4:45.02 | 168291 | 189667
10 | 42:08.68 | 4:43.35 | 189668 | 210927
11 | 46:52.28 | 3:57.14 | 210928 | 228716
12 | 50:49.42 | 3:57.67 | 228717 | 246558


Range status and errors

Selected range

Filename G:\# MY\Eric Martin\Eric Martin - Mr. Vocalist X'mas (2009)\Eric Martin - Mr. Vocalist X'mas.wav

Peak level 99.3 %
Extraction speed 0.4 X
Range quality 99.9 %
Test CRC 81D74ABE
Copy CRC 81D74ABE
Copy OK

No errors occurred


AccurateRip summary

Track 1 not present in database
Track 2 not present in database
Track 3 not present in database
Track 4 not present in database
Track 5 not present in database
Track 6 not present in database
Track 7 not present in database
Track 8 not present in database
Track 9 not present in database
Track 10 not present in database
Track 11 not present in database
Track 12 not present in database

None of the tracks are present in the AccurateRip database

End of status report


[CUETools log; Date: 10.09.2017 7:09:47; Version: 2.1.5]
[AccurateRip ID: 00191681-00e9726f-8c0cd70c] found.
Track [ CRC | V2 ] Status
01 [271ae411|9847382d] (2+4/6) Accurately ripped
02 [a5366981|08c4bbde] (2+4/6) Accurately ripped
03 [264b6ef0|39fe4c7b] (2+4/6) Accurately ripped
04 [68c91ee2|e2b4fa44] (2+4/6) Accurately ripped
05 [9f8b3767|facdfcef] (2+4/6) Accurately ripped
06 [3bc2a4e1|bf2be645] (2+4/6) Accurately ripped
07 [9760e309|a84ea807] (2+4/6) Accurately ripped
08 [3e58ade4|c448c659] (2+4/6) Accurately ripped
09 [7242a899|a56589a0] (2+4/6) Accurately ripped
10 [54a23978|0dea10d5] (2+4/6) Accurately ripped
11 [eb684cf9|dbe6453f] (2+4/6) Accurately ripped
12 [fba51bf9|4742912d] (2+4/6) Accurately ripped

Track Peak [ CRC32 ] [W/O NULL] [ LOG ]
– 99,3 [81D74ABE] [CD8C78F4] CRC32
01 98,0 [86DB50D8] [F8833F25]
02 98,2 [E66EB873] [5A581BBB]
03 98,0 [37DDAD62] [8A2E4069]
04 98,0 [9C7BFB10] [11509C77]
05 98,0 [430047E7] [F1317C5E]
06 98,0 [03F67431] [E90C981A]
07 98,0 [1B983986] [2AE8D2E4]
08 98,1 [0E54967E] [9F3C248B]
09 99,3 [A28AF1DD] [5F2FD595]
10 90,4 [96FB5A08] [3B71DE21]
11 97,6 [983DAC56] [09899A51]
12 80,6 [9426A44F] [3C99FD7C]


Eric Martin - Mr. Vocalist X'mas (2009)

All thanks go to Ginger Devil

Eric Martin in my Blog

Download Eric Martin - Mr. Vocalist X'mas (2009):