Subcategories
Tags
Language
Tags

Dusty Springfield - At Her Very Best [2CD] (2006)

Posted By: BlondStyle
Dusty Springfield - At Her Very Best [2CD] (2006)

Dusty Springfield - At Her Very Best [2CD] (2006)
Pop/Rock, R&B, Blue-Eyed Soul | EAC Rip | FLAC, Img+CUE+LOG+Scans (JPEG) | 02:19:25 h. | 907,82 Mb
Label: Universal Music TV (UK) | Cat.# 9840305 | Released: 2006-06-12

2006 digitally remastered anthology of the singer Sir Elton John declared was "the greatest white Soul singer of all time". And with good reason. Her voice posessed a unique, sultry sexiness and power that was completely her own along with a talent to interpret a song like no one else could. Hence, she was destined to have achieved the stupendous string of hit singles in dozens of countries around the world. This set compiles her most acclaimed performances, including "24 Hours From Tulsa", a live version of "Quiet Please There's A Lady On Stage" and her hit collaborations with The Pet Shop Boys, "What Have I Done To Deserve This" and "In Private".
~Amazon

Dusty Springfield - At Her Very Best [2CD] (2006)

Dusty Springfield - At Her Very Best [2CD] (2006)

Dusty Springfield - At Her Very Best [2CD] (2006)


Release of this 2CD-Set: 2006, June, 12 [CDs Universal Music TV (UK), Cat.# 9840305 / UPC: 602498403051]
℗© 2006 Universal Music TV, a Division of Universal Music Operations Ltd.
Marketed and Distributed in the U.K. by Universal Music Operations Limited
Made in the U.K.


Tracklist:

Disc 1

01. You Dont Have To Say You Love Me
02. Son Of A Preacher Man
03. Take Another Little Piece Of My Heart
04. I Wanna Make You Happy
05. I Just Dont Know What To Do With Myself
06. Will You Love Me Tomorrow?
07. Breakfast In Bed
08. Twenty - Four Hours From Tulsa
09. Am I The Same Girl
10. Make It With You
11. Oh No! Not My Baby
12. In The Middle Of Nowhere
13. Stay Awhile
14. That's How Heartaches Are Made
15. Ain't No Sunshine Since You've Been Gone
16. I Close My Eyes & Count To Ten
17. Windmills Of Your Mind
18. Give Me Time
19. Some Of Your Lovin'
20. Island Of Dreams
21. What Do You Do When Love Dies
22. Little By Little
23. Quiet Please Theres A Lady On Stage (Live)

Disc 2

01. The Look Of Love
02. Spooky
03. I Only Want To Be With You
04. Anyone Who Had A Heart
05. You've Got A Friend
06. Your Hurtin' Kind Of Love
07. Wishin' & Hopin'
08. How Can I Be Sure
09. This Girl's In Love With You
10. (They Long To Be) Close To You
11. Losing You
12. Wish I'd Never Loved You
13. Goin' Back
14. All I See Is You
15. I'll Try Anything
16. If You Go Away
17. You Don't Own Me
18. Brand New Me
19. The Star Of My Show
20. Reputation
21. What Have I Done To Deserve This? (with The Pet Shop Boys)
22. In Private

Exact Audio Copy V0.99 prebeta 4 from 23. January 2008

EAC extraction logfile from 24. January 2011, 5:06

Dusty Springfield / At Her Very Best (Disc 1)

Used drive : ATAPI DVD DW 8X16X8X16 Adapter: 0 ID: 2

Read mode : Secure
Utilize accurate stream : Yes
Defeat audio cache : Yes
Make use of C2 pointers : No

Read offset correction : 618
Overread into Lead-In and Lead-Out : No
Fill up missing offset samples with silence : Yes
Delete leading and trailing silent blocks : No
Null samples used in CRC calculations : Yes
Used interface : Native Win32 interface for Win NT & 2000

Used output format : Internal WAV Routines
Sample format : 44.100 Hz; 16 Bit; Stereo


TOC of the extracted CD

Track | Start | Length | Start sector | End sector
––––––––––––––––––––––––––––-
1 | 0:00.00 | 2:50.00 | 0 | 12749
2 | 2:50.00 | 2:24.62 | 12750 | 23611
3 | 5:14.62 | 2:36.41 | 23612 | 35352
4 | 7:51.28 | 2:26.53 | 35353 | 46355
5 | 10:18.06 | 3:01.13 | 46356 | 59943
6 | 13:19.19 | 2:37.61 | 59944 | 71779
7 | 15:57.05 | 2:51.60 | 71780 | 84664
8 | 18:48.65 | 3:04.38 | 84665 | 98502
9 | 21:53.28 | 3:00.25 | 98503 | 112027
10 | 24:53.53 | 3:07.31 | 112028 | 126083
11 | 28:01.09 | 2:44.35 | 126084 | 138418
12 | 30:45.44 | 2:48.07 | 138419 | 151025
13 | 33:33.51 | 1:55.41 | 151026 | 159691
14 | 35:29.17 | 2:47.23 | 159692 | 172239
15 | 38:16.40 | 2:44.44 | 172240 | 184583
16 | 41:01.09 | 3:08.46 | 184584 | 198729
17 | 44:09.55 | 3:47.56 | 198730 | 215810
18 | 47:57.36 | 3:07.08 | 215811 | 229843
19 | 51:04.44 | 3:00.53 | 229844 | 243396
20 | 54:05.22 | 2:37.06 | 243397 | 255177
21 | 56:42.28 | 2:36.66 | 255178 | 266943
22 | 59:19.19 | 2:22.66 | 266944 | 277659
23 | 61:42.10 | 6:13.35 | 277660 | 305669


Range status and errors

Selected range

Filename C:\BlondStyle\Disc 1.wav

Peak level 100.0 %
Range quality 100.0 %
Test CRC 6170394F
Copy CRC 6170394F
Copy OK

No errors occurred


AccurateRip summary

Track 1 accurately ripped (confidence 9) [202A68C8]
Track 2 accurately ripped (confidence 9) [C1CEDE6D]
Track 3 accurately ripped (confidence 9) [D875A036]
Track 4 accurately ripped (confidence 9) [6C927576]
Track 5 cannot be verified as accurate (confidence 8) [00A65B34], AccurateRip returned [CAD56A7E]
Track 6 accurately ripped (confidence 9) [CB2EFD9A]
Track 7 accurately ripped (confidence 9) [D3297C16]
Track 8 accurately ripped (confidence 9) [1ACE9FF0]
Track 9 accurately ripped (confidence 9) [839C13E5]
Track 10 accurately ripped (confidence 9) [C4D65AD8]
Track 11 accurately ripped (confidence 9) [28232E90]
Track 12 accurately ripped (confidence 9) [7600B142]
Track 13 accurately ripped (confidence 9) [10A04CEF]
Track 14 accurately ripped (confidence 9) [C54E1F06]
Track 15 accurately ripped (confidence 9) [7050B7AD]
Track 16 accurately ripped (confidence 9) [1E74FE2E]
Track 17 accurately ripped (confidence 9) [A3FE5DF0]
Track 18 accurately ripped (confidence 9) [9096AAF3]
Track 19 accurately ripped (confidence 9) [B37843AE]
Track 20 accurately ripped (confidence 9) [65E1CCFC]
Track 21 cannot be verified as accurate (confidence 9) [C064A42A], AccurateRip returned [E80545E5]
Track 22 accurately ripped (confidence 9) [35BE6C40]
Track 23 cannot be verified as accurate (confidence 8) [07F7D422], AccurateRip returned [996D38FB]

20 track(s) accurately ripped
3 track(s) could not be verified as accurate

Some tracks could not be verified as accurate

End of status report

––––––––––––––––––––––––––––––––––––––––
Analyzed: Dusty Springfield / At Her Very Best (Disc 1)
––––––––––––––––––––––––––––––––––––––––

DR Peak RMS Duration Track
––––––––––––––––––––––––––––––––––––––––
DR7 -0.91 dB -9.92 dB 2:50 01-You Don't Have To Say You Love Me
DR9 -0.55 dB -12.22 dB 2:25 02-Son Of A Preacher Man
DR6 -2.35 dB -10.36 dB 2:37 03-Take Another Little Piece Of My Heart
DR7 -0.64 dB -8.93 dB 2:27 04-I Wanna Make You Happy
DR6 -0.35 dB -8.70 dB 3:01 05-I Just Don't Know What To Do With Myself
DR6 -1.14 dB -8.83 dB 2:38 06-Will You Love Me Tomorrow?
DR10 -0.31 dB -12.44 dB 2:52 07-Breakfast In Bed
DR9 -0.33 dB -11.82 dB 3:05 08-Twenty-Four Hours From Tulsa
DR10 -0.20 dB -11.37 dB 3:00 09-Am I The Same Girl
DR9 -0.36 dB -11.62 dB 3:07 10-Make It With You
DR6 -0.74 dB -8.05 dB 2:44 11-Oh No! Not My Baby
DR8 -0.36 dB -9.97 dB 2:48 12-In The Middle Of Nowhere
DR7 -0.84 dB -9.34 dB 1:56 13-Stay Awhile
DR7 -0.62 dB -10.10 dB 2:47 14-That's How Heartaches Are Made
DR7 -0.56 dB -8.86 dB 2:45 15-Ain't No Sunshine Since You've Been Gone
DR7 -0.32 dB -9.52 dB 3:09 16-I Close My Eyes And Count To Ten
DR9 0.00 dB -12.96 dB 3:48 17-The Windmills Of Your Mind
DR7 -0.19 dB -10.15 dB 3:07 18-Give Me Time
DR7 -0.83 dB -9.22 dB 3:01 19-Some Of Your Lovin'
DR8 -1.04 dB -10.91 dB 2:37 20-Island Of Dreams
DR6 -0.50 dB -9.06 dB 2:37 21-What Do You Do When Love Dies
DR8 -0.64 dB -9.82 dB 2:23 22-Little By Little
DR9 -0.36 dB -13.81 dB 6:13 23-Quiet Please There's A Lady On Stage (Live)
––––––––––––––––––––––––––––––––––––––––

Number of tracks: 23
Official DR value: DR8

Samplerate: 44100 Hz
Channels: 2
Bits per sample: 16
Bitrate: 880 kbps
Codec: FLAC
================================================================================

Exact Audio Copy V0.99 prebeta 4 from 23. January 2008

EAC extraction logfile from 24. January 2011, 5:37

Dusty Springfield / At Her Very Best (Disc 2)

Used drive : ATAPI DVD DW 8X16X8X16 Adapter: 0 ID: 2

Read mode : Secure
Utilize accurate stream : Yes
Defeat audio cache : Yes
Make use of C2 pointers : No

Read offset correction : 618
Overread into Lead-In and Lead-Out : No
Fill up missing offset samples with silence : Yes
Delete leading and trailing silent blocks : No
Null samples used in CRC calculations : Yes
Used interface : Native Win32 interface for Win NT & 2000

Used output format : Internal WAV Routines
Sample format : 44.100 Hz; 16 Bit; Stereo


TOC of the extracted CD

Track | Start | Length | Start sector | End sector
––––––––––––––––––––––––––––-
1 | 0:00.00 | 3:31.64 | 0 | 15888
2 | 3:31.64 | 2:40.42 | 15889 | 27930
3 | 6:12.31 | 2:36.04 | 27931 | 39634
4 | 8:48.35 | 3:05.10 | 39635 | 53519
5 | 11:53.45 | 5:22.55 | 53520 | 77724
6 | 17:16.25 | 2:38.31 | 77725 | 89605
7 | 19:54.56 | 2:54.51 | 89606 | 102706
8 | 22:49.32 | 2:45.74 | 102707 | 115155
9 | 25:35.31 | 3:38.47 | 115156 | 131552
10 | 29:14.03 | 2:25.39 | 131553 | 142466
11 | 31:39.42 | 3:00.12 | 142467 | 155978
12 | 34:39.54 | 3:37.16 | 155979 | 172269
13 | 38:16.70 | 3:30.59 | 172270 | 188078
14 | 41:47.54 | 3:22.23 | 188079 | 203251
15 | 45:10.02 | 2:28.40 | 203252 | 214391
16 | 47:38.42 | 3:51.11 | 214392 | 231727
17 | 51:29.53 | 2:29.31 | 231728 | 242933
18 | 53:59.09 | 2:26.00 | 242934 | 253883
19 | 56:25.09 | 2:24.67 | 253884 | 264750
20 | 58:50.01 | 4:12.30 | 264751 | 283680
21 | 63:02.31 | 4:11.66 | 283681 | 302571
22 | 67:14.22 | 4:14.48 | 302572 | 321669


Range status and errors

Selected range

Filename C:\BlondStyle\Disc 2.wav

Peak level 98.0 %
Range quality 99.9 %
Test CRC F0EC39B3
Copy CRC F0EC39B3
Copy OK

No errors occurred


AccurateRip summary

Track 1 accurately ripped (confidence 12) [D2A384D3]
Track 2 accurately ripped (confidence 12) [3C80AAF5]
Track 3 accurately ripped (confidence 12) [D99A51BF]
Track 4 accurately ripped (confidence 12) [8412B194]
Track 5 accurately ripped (confidence 12) [5C87FCC8]
Track 6 accurately ripped (confidence 12) [DB43A7D3]
Track 7 accurately ripped (confidence 12) [9DFDDE37]
Track 8 accurately ripped (confidence 12) [8F0B3328]
Track 9 accurately ripped (confidence 12) [3EFA0634]
Track 10 accurately ripped (confidence 12) [6F0E3EF3]
Track 11 accurately ripped (confidence 12) [DCBDB1B2]
Track 12 accurately ripped (confidence 12) [0B5FD4C1]
Track 13 accurately ripped (confidence 12) [B7E283BD]
Track 14 accurately ripped (confidence 12) [F905B0EF]
Track 15 accurately ripped (confidence 12) [9845AE86]
Track 16 accurately ripped (confidence 12) [F2342FBF]
Track 17 accurately ripped (confidence 12) [15B58570]
Track 18 accurately ripped (confidence 12) [B66D66CC]
Track 19 accurately ripped (confidence 12) [13EC4CC1]
Track 20 accurately ripped (confidence 12) [038CEF05]
Track 21 accurately ripped (confidence 12) [41F5A171]
Track 22 accurately ripped (confidence 12) [ED393697]

All tracks accurately ripped

End of status report

––––––––––––––––––––––––––––––––––––––––
Analyzed: Dusty Springfield / At Her Very Best (Disc 2)
––––––––––––––––––––––––––––––––––––––––

DR Peak RMS Duration Track
––––––––––––––––––––––––––––––––––––––––
DR9 -0.46 dB -12.04 dB 3:32 01-The Look Of Love
DR8 -0.48 dB -9.91 dB 2:41 02-Spooky
DR6 -0.89 dB -8.53 dB 2:36 03-I Only Want To Be With You
DR9 -0.20 dB -11.19 dB 3:05 04-Anyone Who Had A Heart
DR10 -0.22 dB -12.45 dB 5:23 05-You've Got A Friend
DR7 -0.33 dB -8.58 dB 2:38 06-Your Hurtin' Kind Of Love
DR8 -0.33 dB -10.12 dB 2:55 07-Wishin' & Hopin'
DR7 -0.35 dB -10.15 dB 2:46 08-How Can I Be Sure
DR9 -0.69 dB -12.34 dB 3:39 09-This Girl's In Love With You
DR8 -0.53 dB -10.48 dB 2:26 10-(They Long To Be) Close To You
DR8 -0.29 dB -9.69 dB 3:00 11-Losing You
DR7 -0.17 dB -9.49 dB 3:37 12-Wish I'd Never Loved You
DR9 -0.32 dB -12.79 dB 3:31 13-Goin' Back
DR7 -0.21 dB -9.30 dB 3:22 14-All I See Is You
DR8 -0.22 dB -9.97 dB 2:29 15-I'll Try Anything
DR9 -0.36 dB -12.08 dB 3:51 16-If You Go Away
DR7 -0.74 dB -9.73 dB 2:29 17-You Don't Own Me
DR8 -0.38 dB -9.76 dB 2:26 18-Brand New Me
DR8 -0.53 dB -10.64 dB 2:25 19-The Star Of My Show
DR8 -0.36 dB -10.33 dB 4:12 20-Reputation
DR9 -0.93 dB -11.47 dB 4:12 21-What Have I Done To Deserve This
DR10 -0.36 dB -11.15 dB 4:15 22-In Private
––––––––––––––––––––––––––––––––––––––––

Number of tracks: 22
Official DR value: DR8

Samplerate: 44100 Hz
Channels: 2
Bits per sample: 16
Bitrate: 879 kbps
Codec: FLAC
================================================================================

See also:


password: BlondStyle