Tags
Language
Tags
February 2024
Su Mo Tu We Th Fr Sa
28 29 30 31 1 2 3
4 5 6 7 8 9 10
11 12 13 14 15 16 17
18 19 20 21 22 23 24
25 26 27 28 29 1 2
Attention❗ To save your time, in order to download anything on this site, you must be registered 👉 HERE. If you do not have a registration yet, it is better to do it right away. ✌

( • )( • ) ( ͡⚆ ͜ʖ ͡⚆ ) (‿ˠ‿)
SpicyMags.xyz

Celine Dion - Through The Eyes Of The World: Go Beyond The Music (2010)

Posted By: v3122
Celine Dion - Through The Eyes Of The World: Go Beyond The Music (2010)

Celine Dion - Through The Eyes Of The World: Go Beyond The Music (2010)
Blu-ray: MPEG-4 AVC 1080i, 29,970 fps, 16:9, High Profile 4.1
LPCM 2.0, 48 kHz, 24-bit / Dolby TrueHD 5.1, 48 kHz, 16-bit
Rock, Pop, Documentary | 02:53:20 | ~ 39.31 Gb

~ A documentary on Céline Dion's 2008-2009 Taking Chances world tour. ~

Celine Dion - Through The Eyes Of The World: Go Beyond The Music (2010):

Tracklist:

1 Intro / I Drove All Night

Africa
2 Love Can Move Mountains (snippet)
3 I've Got The Music In Me (snippet)
4 I'm Alive

Asia Part 1
5 Watashi (snippet)
6 A World To Believe In (snippet)
7 To Love You More (snippet)
8 Taking Chances
9 It's All Coming Back To Me Now (snippet)
10 Eyes On Me

Oceania
11 The Show Must Go On (snippet)

Asia Part2
12 The Power Of Love (snippet)
13 Shadow Of Love (snippet)
14 All By Myself

Europe
15 Ticket To Ride / Your Song (snippets)
16 Alone
17 Dans Un Autre Monde (snippet)
18 Ziggy (snippet)
19 Pour Que Tu M'aime Encore (snippet)
20 J'irai Ou Tu Iras (snippet)
21 Ne Partez Pas Sans Moi (snippet)
22 A Song For You (snippet) Featuring – Robert Wells (3)
23 The Prayer Featuring [Duet With] – Andrea Bocelli
24 I'm Your Angel (snippet) Featuring [Duet With] – Barnev Valsaint
25 S'il Suffisait D'aimer

America
26 My Love
27 Because You Loved Me (snippet) Featuring – Charice
28 Soul Medley / It's A Man's Man's Man's World
29 Love Can Move Mountain (snippet)
30 All By Myself (snippet)
31 River Deep, Mountain High
32 My Heart Will Go On

Disc Title: Celine: Through the Eyes of the World/Documentary
Disc Label: Celine Dion - Through The Eyes Of The World. Go Beyond The Music
Disc Size: 41,636,423,571 bytes
Protection: AACS
Extras: BD-Java
BDInfo: 0.7.5.5

Notes:

BDINFO HOME:
Cinema Squid (old)
http://www.cinemasquid.com/blu-ray/tools/bdinfo
UniqProject GitHub (new)
https://github.com/UniqProject/BDInfo

INCLUDES FORUMS REPORT FOR:
AVS Forum Blu-ray Audio and Video Specifications Thread
http://www.avsforum.com/avs-vb/showthread.php?t=1155731

WARNING: Report is incomplete because: Scan has not been run.

********************
PLAYLIST: 00034.MPLS
********************

<–- BEGIN FORUMS PASTE –->
                                                                                                                Total   Video                                             
Title                                                           Codec   Length  Movie Size      Disc Size       Bitrate Bitrate Main Audio Track                          Secondary Audio Track
-----                                                           ------  ------- --------------  --------------  ------- ------- ------------------                        ---------------------
00034.MPLS                                                      AVC     2:53:20 0               41,636,423,571  0.00    0.00    LPCM 2.0 2304Kbps (48kHz/24-bit)          Dolby TrueHD 5.1 (48kHz/16-bit)


DISC INFO:

Disc Title:     Celine: Through the Eyes of the World/Documentary
Disc Label:     Celine Dion - Through The Eyes Of The World. Go Beyond The Music
Disc Size:      41,636,423,571 bytes
Protection:     AACS
Extras:         BD-Java
BDInfo:         0.7.5.5

PLAYLIST REPORT:

Name:                   00034.MPLS
Length:                 2:53:20.690 (h:m:s.ms)
Size:                   0 bytes
Total Bitrate:          0.00 Mbps

VIDEO:

Codec                   Bitrate             Description     
-----                   -------             -----------     
MPEG-4 AVC Video        0 kbps              1080i / 29.970 fps / 16:9 / High Profile 4.1

AUDIO:

Codec                           Language        Bitrate         Description     
-----                           --------        -------         -----------     
LPCM Audio                      English         2304 kbps       2.0 / 48 kHz /  2304 kbps / 24-bit
Dolby TrueHD Audio              English         0 kbps          5.1 / 48 kHz / 16-bit (AC3 Embedded: 5.1 / 48 kHz /   640 kbps / DN -31dB)

SUBTITLES:

Codec                           Language        Bitrate         Description     
-----                           --------        -------         -----------     
Presentation Graphics           Dutch           0.000 kbps                      
Presentation Graphics           English         0.000 kbps                      
Presentation Graphics           French          0.000 kbps                      
Presentation Graphics           German          0.000 kbps                      
Presentation Graphics           Italian         0.000 kbps                      
Presentation Graphics           Japanese        0.000 kbps                      
Presentation Graphics           Korean          0.000 kbps                      
Presentation Graphics           Chinese         0.000 kbps                      
Presentation Graphics           Spanish         0.000 kbps                      
Presentation Graphics           Thai            0.000 kbps                      

FILES:

Name            Time In         Length          Size            Total Bitrate   
----            -------         ------          ----            -------------   
00000.M2TS      0:00:00.000     1:27:18.433     0               0               
00041.M2TS      1:27:18.433     1:26:02.257     0               0               

CHAPTERS:

Number          Time In         Length          Avg Video Rate  Max 1-Sec Rate  Max 1-Sec Time  Max 5-Sec Rate  Max 5-Sec Time  Max 10Sec Rate  Max 10Sec Time  Avg Frame Size  Max Frame Size  Max Frame Time  
------          -------         ------          --------------  --------------  --------------  --------------  --------------  --------------  --------------  --------------  --------------  --------------  
1               0:00:00.000     0:08:54.767     0 kbps          0 kbps          00:00:00.000    0 kbps          00:00:00.000    0 kbps          00:00:00.000    0 bytes         0 bytes         00:00:00.000    
2               0:08:54.767     0:14:10.783     0 kbps          0 kbps          00:00:00.000    0 kbps          00:00:00.000    0 kbps          00:00:00.000    0 bytes         0 bytes         00:00:00.000    
3               0:23:05.550     0:29:37.909     0 kbps          0 kbps          00:00:00.000    0 kbps          00:00:00.000    0 kbps          00:00:00.000    0 bytes         0 bytes         00:00:00.000    
4               0:52:43.460     0:09:39.211     0 kbps          0 kbps          00:00:00.000    0 kbps          00:00:00.000    0 kbps          00:00:00.000    0 bytes         0 bytes         00:00:00.000    
5               1:02:22.672     0:09:50.323     0 kbps          0 kbps          00:00:00.000    0 kbps          00:00:00.000    0 kbps          00:00:00.000    0 bytes         0 bytes         00:00:00.000    
6               1:12:12.995     0:53:49.125     0 kbps          0 kbps          00:00:00.000    0 kbps          00:00:00.000    0 kbps          00:00:00.000    0 bytes         0 bytes         00:00:00.000    
7               2:06:02.121     0:47:18.569     0 kbps          0 kbps          00:00:00.000    0 kbps          00:00:00.000    0 kbps          00:00:00.000    0 bytes         0 bytes         00:00:00.000    

STREAM DIAGNOSTICS:

File            PID             Type            Codec           Language                Seconds                 Bitrate                 Bytes           Packets         
----            ---             ----            -----           --------                --------------          --------------          -------------   -----           
00000.M2TS      4113 (0x1011)   0x1B            AVC                                     0                       0                       0               0               
00000.M2TS      4352 (0x1100)   0x80            LPCM            eng (English)           0                       0                       0               0               
00000.M2TS      4353 (0x1101)   0x83            TrueHD          eng (English)           0                       0                       0               0               
00000.M2TS      4608 (0x1200)   0x90            PGS             nld (Dutch)             0                       0                       0               0               
00000.M2TS      4609 (0x1201)   0x90            PGS             eng (English)           0                       0                       0               0               
00000.M2TS      4610 (0x1202)   0x90            PGS             fra (French)            0                       0                       0               0               
00000.M2TS      4611 (0x1203)   0x90            PGS             deu (German)            0                       0                       0               0               
00000.M2TS      4612 (0x1204)   0x90            PGS             ita (Italian)           0                       0                       0               0               
00000.M2TS      4613 (0x1205)   0x90            PGS             jpn (Japanese)          0                       0                       0               0               
00000.M2TS      4614 (0x1206)   0x90            PGS             kor (Korean)            0                       0                       0               0               
00000.M2TS      4615 (0x1207)   0x90            PGS             zho (Chinese)           0                       0                       0               0               
00000.M2TS      4616 (0x1208)   0x90            PGS             spa (Spanish)           0                       0                       0               0               
00000.M2TS      4617 (0x1209)   0x90            PGS             tha (Thai)              0                       0                       0               0               
00041.M2TS      4113 (0x1011)   0x1B            AVC                                     0                       0                       0               0               
00041.M2TS      4352 (0x1100)   0x80            LPCM            eng (English)           0                       0                       0               0               
00041.M2TS      4353 (0x1101)   0x83            TrueHD          eng (English)           0                       0                       0               0               
00041.M2TS      4608 (0x1200)   0x90            PGS             nld (Dutch)             0                       0                       0               0               
00041.M2TS      4609 (0x1201)   0x90            PGS             eng (English)           0                       0                       0               0               
00041.M2TS      4610 (0x1202)   0x90            PGS             fra (French)            0                       0                       0               0               
00041.M2TS      4611 (0x1203)   0x90            PGS             deu (German)            0                       0                       0               0               
00041.M2TS      4612 (0x1204)   0x90            PGS             ita (Italian)           0                       0                       0               0               
00041.M2TS      4613 (0x1205)   0x90            PGS             jpn (Japanese)          0                       0                       0               0               
00041.M2TS      4614 (0x1206)   0x90            PGS             kor (Korean)            0                       0                       0               0               
00041.M2TS      4615 (0x1207)   0x90            PGS             zho (Chinese)           0                       0                       0               0               
00041.M2TS      4616 (0x1208)   0x90            PGS             spa (Spanish)           0                       0                       0               0               
00041.M2TS      4617 (0x1209)   0x90            PGS             tha (Thai)              0                       0                       0               0               

<–– END FORUMS PASTE ––>

QUICK SUMMARY:

Disc Title: Celine: Through the Eyes of the World/Documentary
Disc Label: Celine Dion - Through The Eyes Of The World. Go Beyond The Music
Disc Size: 41,636,423,571 bytes
Protection: AACS
Playlist: 00034.MPLS
Size: 0 bytes
Length: 2:53:20.690
Total Bitrate: 0.00 Mbps
Video: MPEG-4 AVC Video / 0 kbps / 1080i / 29.970 fps / 16:9 / High Profile 4.1
Audio: English / LPCM Audio / 2.0 / 48 kHz / 2304 kbps / 24-bit
Audio: English / Dolby TrueHD Audio / 5.1 / 48 kHz / 16-bit (AC3 Embedded: 5.1 / 48 kHz / 640 kbps / DN -31dB)
Subtitle: Dutch / 0.000 kbps
Subtitle: English / 0.000 kbps
Subtitle: French / 0.000 kbps
Subtitle: German / 0.000 kbps
Subtitle: Italian / 0.000 kbps
Subtitle: Japanese / 0.000 kbps
Subtitle: Korean / 0.000 kbps
Subtitle: Chinese / 0.000 kbps
Subtitle: Spanish / 0.000 kbps
Subtitle: Thai / 0.000 kbps


********************
PLAYLIST: 00101.MPLS
********************

<–- BEGIN FORUMS PASTE –->
                                                                                                                Total   Video                                             
Title                                                           Codec   Length  Movie Size      Disc Size       Bitrate Bitrate Main Audio Track                          Secondary Audio Track
-----                                                           ------  ------- --------------  --------------  ------- ------- ------------------                        ---------------------
00101.MPLS                                                      MPEG-2  0:01:45 0               41,636,423,571  0.00    0.00                                              


DISC INFO:

Disc Title:     Celine: Through the Eyes of the World/Documentary
Disc Label:     Celine Dion - Through The Eyes Of The World. Go Beyond The Music
Disc Size:      41,636,423,571 bytes
Protection:     AACS
Extras:         BD-Java
BDInfo:         0.7.5.5

PLAYLIST REPORT:

Name:                   00101.MPLS
Length:                 0:01:45.105 (h:m:s.ms)
Size:                   0 bytes
Total Bitrate:          0.00 Mbps

VIDEO:

Codec                   Bitrate             Description     
-----                   -------             -----------     
MPEG-2 Video            0 kbps              1080i / 29.970 fps / 16:9

FILES:

Name            Time In         Length          Size            Total Bitrate   
----            -------         ------          ----            -------------   
00071.M2TS      0:00:00.000     0:01:45.105     0               0               

CHAPTERS:

Number          Time In         Length          Avg Video Rate  Max 1-Sec Rate  Max 1-Sec Time  Max 5-Sec Rate  Max 5-Sec Time  Max 10Sec Rate  Max 10Sec Time  Avg Frame Size  Max Frame Size  Max Frame Time  
------          -------         ------          --------------  --------------  --------------  --------------  --------------  --------------  --------------  --------------  --------------  --------------  
1               0:00:00.000     0:00:07.006     0 kbps          0 kbps          00:00:00.000    0 kbps          00:00:00.000    0 kbps          00:00:00.000    0 bytes         0 bytes         00:00:00.000    
2               0:00:07.006     0:00:07.007     0 kbps          0 kbps          00:00:00.000    0 kbps          00:00:00.000    0 kbps          00:00:00.000    0 bytes         0 bytes         00:00:00.000    
3               0:00:14.014     0:00:07.006     0 kbps          0 kbps          00:00:00.000    0 kbps          00:00:00.000    0 kbps          00:00:00.000    0 bytes         0 bytes         00:00:00.000    
4               0:00:21.020     0:00:07.007     0 kbps          0 kbps          00:00:00.000    0 kbps          00:00:00.000    0 kbps          00:00:00.000    0 bytes         0 bytes         00:00:00.000    
5               0:00:28.028     0:00:07.006     0 kbps          0 kbps          00:00:00.000    0 kbps          00:00:00.000    0 kbps          00:00:00.000    0 bytes         0 bytes         00:00:00.000    
6               0:00:35.034     0:00:07.007     0 kbps          0 kbps          00:00:00.000    0 kbps          00:00:00.000    0 kbps          00:00:00.000    0 bytes         0 bytes         00:00:00.000    
7               0:00:42.042     0:00:06.005     0 kbps          0 kbps          00:00:00.000    0 kbps          00:00:00.000    0 kbps          00:00:00.000    0 bytes         0 bytes         00:00:00.000    
8               0:00:48.048     0:00:08.008     0 kbps          0 kbps          00:00:00.000    0 kbps          00:00:00.000    0 kbps          00:00:00.000    0 bytes         0 bytes         00:00:00.000    
9               0:00:56.056     0:00:07.006     0 kbps          0 kbps          00:00:00.000    0 kbps          00:00:00.000    0 kbps          00:00:00.000    0 bytes         0 bytes         00:00:00.000    
10              0:01:03.062     0:00:07.007     0 kbps          0 kbps          00:00:00.000    0 kbps          00:00:00.000    0 kbps          00:00:00.000    0 bytes         0 bytes         00:00:00.000    
11              0:01:10.070     0:00:07.006     0 kbps          0 kbps          00:00:00.000    0 kbps          00:00:00.000    0 kbps          00:00:00.000    0 bytes         0 bytes         00:00:00.000    
12              0:01:17.077     0:00:07.006     0 kbps          0 kbps          00:00:00.000    0 kbps          00:00:00.000    0 kbps          00:00:00.000    0 bytes         0 bytes         00:00:00.000    
13              0:01:24.083     0:00:07.007     0 kbps          0 kbps          00:00:00.000    0 kbps          00:00:00.000    0 kbps          00:00:00.000    0 bytes         0 bytes         00:00:00.000    
14              0:01:31.091     0:00:07.006     0 kbps          0 kbps          00:00:00.000    0 kbps          00:00:00.000    0 kbps          00:00:00.000    0 bytes         0 bytes         00:00:00.000    
15              0:01:38.097     0:00:07.007     0 kbps          0 kbps          00:00:00.000    0 kbps          00:00:00.000    0 kbps          00:00:00.000    0 bytes         0 bytes         00:00:00.000    

STREAM DIAGNOSTICS:

File            PID             Type            Codec           Language                Seconds                 Bitrate                 Bytes           Packets         
----            ---             ----            -----           --------                --------------          --------------          -------------   -----           
00071.M2TS      4113 (0x1011)   0x02            MPEG-2                                  0                       0                       0               0               

<–– END FORUMS PASTE ––>

QUICK SUMMARY:

Disc Title: Celine: Through the Eyes of the World/Documentary
Disc Label: Celine Dion - Through The Eyes Of The World. Go Beyond The Music
Disc Size: 41,636,423,571 bytes
Protection: AACS
Playlist: 00101.MPLS
Size: 0 bytes
Length: 0:01:45.105
Total Bitrate: 0.00 Mbps
Video: MPEG-2 Video / 0 kbps / 1080i / 29.970 fps / 16:9


********************
PLAYLIST: 00100.MPLS
********************

<–- BEGIN FORUMS PASTE –->
                                                                                                                Total   Video                                             
Title                                                           Codec   Length  Movie Size      Disc Size       Bitrate Bitrate Main Audio Track                          Secondary Audio Track
-----                                                           ------  ------- --------------  --------------  ------- ------- ------------------                        ---------------------
00100.MPLS                                                      MPEG-2  0:01:17 0               41,636,423,571  0.00    0.00                                              


DISC INFO:

Disc Title:     Celine: Through the Eyes of the World/Documentary
Disc Label:     Celine Dion - Through The Eyes Of The World. Go Beyond The Music
Disc Size:      41,636,423,571 bytes
Protection:     AACS
Extras:         BD-Java
BDInfo:         0.7.5.5

PLAYLIST REPORT:

Name:                   00100.MPLS
Length:                 0:01:17.077 (h:m:s.ms)
Size:                   0 bytes
Total Bitrate:          0.00 Mbps

VIDEO:

Codec                   Bitrate             Description     
-----                   -------             -----------     
MPEG-2 Video            0 kbps              1080i / 29.970 fps / 16:9

FILES:

Name            Time In         Length          Size            Total Bitrate   
----            -------         ------          ----            -------------   
00001.M2TS      0:00:00.000     0:01:17.077     0               0               

CHAPTERS:

Number          Time In         Length          Avg Video Rate  Max 1-Sec Rate  Max 1-Sec Time  Max 5-Sec Rate  Max 5-Sec Time  Max 10Sec Rate  Max 10Sec Time  Avg Frame Size  Max Frame Size  Max Frame Time  
------          -------         ------          --------------  --------------  --------------  --------------  --------------  --------------  --------------  --------------  --------------  --------------  
1               0:00:00.000     0:00:07.006     0 kbps          0 kbps          00:00:00.000    0 kbps          00:00:00.000    0 kbps          00:00:00.000    0 bytes         0 bytes         00:00:00.000    
2               0:00:07.006     0:00:07.007     0 kbps          0 kbps          00:00:00.000    0 kbps          00:00:00.000    0 kbps          00:00:00.000    0 bytes         0 bytes         00:00:00.000    
3               0:00:14.014     0:00:07.006     0 kbps          0 kbps          00:00:00.000    0 kbps          00:00:00.000    0 kbps          00:00:00.000    0 bytes         0 bytes         00:00:00.000    
4               0:00:21.020     0:00:07.007     0 kbps          0 kbps          00:00:00.000    0 kbps          00:00:00.000    0 kbps          00:00:00.000    0 bytes         0 bytes         00:00:00.000    
5               0:00:28.028     0:00:07.006     0 kbps          0 kbps          00:00:00.000    0 kbps          00:00:00.000    0 kbps          00:00:00.000    0 bytes         0 bytes         00:00:00.000    
6               0:00:35.034     0:00:07.007     0 kbps          0 kbps          00:00:00.000    0 kbps          00:00:00.000    0 kbps          00:00:00.000    0 bytes         0 bytes         00:00:00.000    
7               0:00:42.042     0:00:06.005     0 kbps          0 kbps          00:00:00.000    0 kbps          00:00:00.000    0 kbps          00:00:00.000    0 bytes         0 bytes         00:00:00.000    
8               0:00:48.048     0:00:08.008     0 kbps          0 kbps          00:00:00.000    0 kbps          00:00:00.000    0 kbps          00:00:00.000    0 bytes         0 bytes         00:00:00.000    
9               0:00:56.056     0:00:07.006     0 kbps          0 kbps          00:00:00.000    0 kbps          00:00:00.000    0 kbps          00:00:00.000    0 bytes         0 bytes         00:00:00.000    
10              0:01:03.062     0:00:07.007     0 kbps          0 kbps          00:00:00.000    0 kbps          00:00:00.000    0 kbps          00:00:00.000    0 bytes         0 bytes         00:00:00.000    
11              0:01:10.070     0:00:07.006     0 kbps          0 kbps          00:00:00.000    0 kbps          00:00:00.000    0 kbps          00:00:00.000    0 bytes         0 bytes         00:00:00.000    

STREAM DIAGNOSTICS:

File            PID             Type            Codec           Language                Seconds                 Bitrate                 Bytes           Packets         
----            ---             ----            -----           --------                --------------          --------------          -------------   -----           
00001.M2TS      4113 (0x1011)   0x02            MPEG-2                                  0                       0                       0               0               

<–– END FORUMS PASTE ––>

QUICK SUMMARY:

Disc Title: Celine: Through the Eyes of the World/Documentary
Disc Label: Celine Dion - Through The Eyes Of The World. Go Beyond The Music
Disc Size: 41,636,423,571 bytes
Protection: AACS
Playlist: 00100.MPLS
Size: 0 bytes
Length: 0:01:17.077
Total Bitrate: 0.00 Mbps
Video: MPEG-2 Video / 0 kbps / 1080i / 29.970 fps / 16:9



Celine Dion - Through The Eyes Of The World: Go Beyond The Music (2010)

Celine Dion - Through The Eyes Of The World: Go Beyond The Music (2010)

Celine Dion - Through The Eyes Of The World: Go Beyond The Music (2010)

Celine Dion - Through The Eyes Of The World: Go Beyond The Music (2010)

Celine Dion - Through The Eyes Of The World: Go Beyond The Music (2010)

All thanks go to the original releaser

Celine Dion in my Blog

Download Celine Dion - Through The Eyes Of The World: Go Beyond The Music (2010):