Subcategories

VA - Cuba Classics 3: ¡Diablo Al Infierno! (1992) {Luaka Bop} **[RE-UP]**

Posted By: TestTickles
VA - Cuba Classics 3: ¡Diablo Al Infierno! (1992) {Luaka Bop} **[RE-UP]**

VA - Cuba Classics 3: ¡Diablo Al Infierno! (1992) {Luaka Bop}
EAC Rip | FLAC with CUE and log | scans | 368 mb
MP3 CBR 320kbps | RAR | 194 mb
Genre: Cuban, son

Cuba Classics 3: ¡Diablo Al Infierno! is a 1992 compilation album of Cuban music released by Luaka Bop. Gathered together in part by David Byrne, this highlights Cuban "son" music.

VA - Cuba Classics 3: ¡Diablo Al Infierno! (1992) {Luaka Bop} **[RE-UP]**

01. Irakere - Bacalao Con Pan
02. Sintesis - Asoyin
03. Los Van Van - El Baile Del Buey Cansao
04. Pio Leyva - Tu No Sabes De Amor
05. Lazaro Ros & Mezcla - Ikiri Ada
06. Los Blues - Rompe Saragόey
07. Grupo Vocal Sampling - Congo Yambumba
08. Dan Den - No Me Carezcas
09. N.G. La Banda - Que Viva Chango
10. Pablo Milanιs - Homenaje
11. Carlos Varela - Guillermo Tell (Live)
12. Zeus - Diablo Al Infierno

Compiled by David Byrne & Ned Sublette
Mastered by Jim Shelton

Exact Audio Copy V1.1 from 23. June 2015

EAC extraction logfile from 5. March 2017, 20:16

Various Artists / Cuba Classics 3: Diablo Al Infierno

Used drive : TEAC DVD-ROM DV-28SW Adapter: 1 ID: 0

Read mode : Secure
Utilize accurate stream : Yes
Defeat audio cache : Yes
Make use of C2 pointers : No

Read offset correction : 6
Overread into Lead-In and Lead-Out : No
Fill up missing offset samples with silence : Yes
Delete leading and trailing silent blocks : No
Null samples used in CRC calculations : Yes
Used interface : Native Win32 interface for Win NT & 2000
Gap handling : Appended to previous track

Used output format : Internal WAV Routines
Sample format : 44.100 Hz; 16 Bit; Stereo


TOC of the extracted CD

Track | Start | Length | Start sector | End sector
––––––––––––––––––––––––––––-
1 | 0:00.00 | 3:46.25 | 0 | 16974
2 | 3:46.25 | 3:28.55 | 16975 | 32629
3 | 7:15.05 | 3:19.05 | 32630 | 47559
4 | 10:34.10 | 5:15.35 | 47560 | 71219
5 | 15:49.45 | 5:06.20 | 71220 | 94189
6 | 20:55.65 | 6:03.55 | 94190 | 121469
7 | 26:59.45 | 3:24.15 | 121470 | 136784
8 | 30:23.60 | 5:52.50 | 136785 | 163234
9 | 36:16.35 | 6:20.60 | 163235 | 191794
10 | 42:37.20 | 5:12.32 | 191795 | 215226
11 | 47:49.52 | 2:54.60 | 215227 | 228336
12 | 50:44.37 | 5:15.08 | 228337 | 251969


Track 1

Filename C:\My Documents\My FLAC\VA - Cuba Classics 3 Diablo Al Infierno (1992) [FLAC] {Luaka Bop}\01 - Irakere - Bacalao Con Pan (Codfish Bread).wav

Pre-gap length 0:00:02.00

Peak level 83.1 %
Extraction speed 2.5 X
Track quality 100.0 %
Test CRC D413A1A6
Copy CRC D413A1A6
Accurately ripped (confidence 5) [87813240] (AR v2)
Copy OK

Track 2

Filename C:\My Documents\My FLAC\VA - Cuba Classics 3 Diablo Al Infierno (1992) [FLAC] {Luaka Bop}\02 - Sintesis - Asoyin (Terrible Malady).wav

Pre-gap length 0:00:04.59

Peak level 82.8 %
Extraction speed 2.2 X
Track quality 100.0 %
Test CRC 29C59AD6
Copy CRC 29C59AD6
Accurately ripped (confidence 5) [BB7F9E65] (AR v2)
Copy OK

Track 3

Filename C:\My Documents\My FLAC\VA - Cuba Classics 3 Diablo Al Infierno (1992) [FLAC] {Luaka Bop}\03 - Los Van Van - El Baile Del Buey Cansao (The Dance Of The Tired Out Ox).wav

Pre-gap length 0:00:05.29

Peak level 100.0 %
Extraction speed 3.0 X
Track quality 100.0 %
Test CRC D47152C8
Copy CRC D47152C8
Accurately ripped (confidence 5) [C134E260] (AR v2)
Copy OK

Track 4

Filename C:\My Documents\My FLAC\VA - Cuba Classics 3 Diablo Al Infierno (1992) [FLAC] {Luaka Bop}\04 - Pio Leyva - Tu No Sabes De Amor (You Know Nothing About Love).wav

Pre-gap length 0:00:05.69

Peak level 80.4 %
Extraction speed 1.0 X
Track quality 99.8 %
Test CRC 3CE597D4
Copy CRC 3CE597D4
Cannot be verified as accurate (confidence 4) [A4390905], AccurateRip returned [8DE5B719] (AR v2)
Copy OK

Track 5

Filename C:\My Documents\My FLAC\VA - Cuba Classics 3 Diablo Al Infierno (1992) [FLAC] {Luaka Bop}\05 - Lazaro Ros with Mezcla - Ikiri Ada (Restless Machete).wav

Pre-gap length 0:00:06.06

Peak level 76.2 %
Extraction speed 3.3 X
Track quality 100.0 %
Test CRC 07BF2096
Copy CRC 07BF2096
Accurately ripped (confidence 5) [CBE43ECD] (AR v2)
Copy OK

Track 6

Filename C:\My Documents\My FLAC\VA - Cuba Classics 3 Diablo Al Infierno (1992) [FLAC] {Luaka Bop}\06 - Los Blues - Rompe Saragüey (Break The Spell).wav

Pre-gap length 0:00:06.46

Peak level 54.8 %
Extraction speed 3.1 X
Track quality 99.9 %
Test CRC 4ABEB40D
Copy CRC 4ABEB40D
Accurately ripped (confidence 5) [FD7BA98E] (AR v2)
Copy OK

Track 7

Filename C:\My Documents\My FLAC\VA - Cuba Classics 3 Diablo Al Infierno (1992) [FLAC] {Luaka Bop}\07 - Grupo Vocal Sampling - Congo Yambumba.wav

Pre-gap length 0:00:03.64

Peak level 75.2 %
Extraction speed 2.4 X
Track quality 99.9 %
Test CRC 482E04A0
Copy CRC 482E04A0
Accurately ripped (confidence 5) [22751ED0] (AR v2)
Copy OK

Track 8

Filename C:\My Documents\My FLAC\VA - Cuba Classics 3 Diablo Al Infierno (1992) [FLAC] {Luaka Bop}\08 - Dan Den - No Me Carezcas (Don't Hold Back).wav

Pre-gap length 0:00:06.69

Peak level 76.0 %
Extraction speed 3.4 X
Track quality 100.0 %
Test CRC FC97D9A1
Copy CRC FC97D9A1
Accurately ripped (confidence 5) [925D1768] (AR v2)
Copy OK

Track 9

Filename C:\My Documents\My FLAC\VA - Cuba Classics 3 Diablo Al Infierno (1992) [FLAC] {Luaka Bop}\09 - N.G. La Banda - Que Viva Changó (Long Live Change).wav

Pre-gap length 0:00:05.61

Peak level 72.6 %
Extraction speed 2.4 X
Track quality 99.9 %
Test CRC 67CEFC78
Copy CRC 67CEFC78
Accurately ripped (confidence 5) [74A5E2E0] (AR v2)
Copy OK

Track 10

Filename C:\My Documents\My FLAC\VA - Cuba Classics 3 Diablo Al Infierno (1992) [FLAC] {Luaka Bop}\10 - Pablo Milanés - Homenaje (Homage).wav

Pre-gap length 0:00:05.11

Peak level 83.1 %
Extraction speed 1.9 X
Track quality 99.9 %
Test CRC AD4452D1
Copy CRC AD4452D1
Accurately ripped (confidence 5) [A12DA40D] (AR v2)
Copy OK

Track 11

Filename C:\My Documents\My FLAC\VA - Cuba Classics 3 Diablo Al Infierno (1992) [FLAC] {Luaka Bop}\11 - Carlos Varela - Guillermo Tell (William Tell) (Live).wav

Pre-gap length 0:00:04.23

Peak level 57.9 %
Extraction speed 2.1 X
Track quality 100.0 %
Test CRC 64A3B024
Copy CRC 64A3B024
Accurately ripped (confidence 5) [3E25AF60] (AR v2)
Copy OK

Track 12

Filename C:\My Documents\My FLAC\VA - Cuba Classics 3 Diablo Al Infierno (1992) [FLAC] {Luaka Bop}\12 - Zeus - Diablo Al Infierno (Devil Go To Hell).wav

Pre-gap length 0:00:04.58

Peak level 62.3 %
Extraction speed 2.2 X
Track quality 100.0 %
Test CRC 3D07C964
Copy CRC 3D07C964
Accurately ripped (confidence 5) [740B7795] (AR v2)
Copy OK


11 track(s) accurately ripped
1 track(s) could not be verified as accurate

Some tracks could not be verified as accurate

No errors occurred

End of status report

–– CUETools DB Plugin V2.1.6

[CTDB TOCID: evPbaRXXqBWFnP7g0F3ppTumdOw-] found
Submit result: evPbaRXXqBWFnP7g0F3ppTumdOw- has been uploaded
Track | CTDB Status
1 | (2/2) Accurately ripped
2 | (2/2) Accurately ripped
3 | (2/2) Accurately ripped
4 | (1/2) Differs in 2485 samples @05:13:25-05:13:29, or (1/2) differs in 2484 samples @05:13:25-05:13:29
5 | (2/2) Accurately ripped
6 | (2/2) Accurately ripped
7 | (2/2) Accurately ripped
8 | (2/2) Accurately ripped
9 | (2/2) Accurately ripped
10 | (2/2) Accurately ripped
11 | (2/2) Accurately ripped
12 | (2/2) Accurately ripped
If you are sure that your rip contains errors, you can use CUETools to repair it.


==== Log checksum 31B887D12C0A0E2920BB75C6A4D1A1AC92655873E6DDBFA49F1722960638CA99 ====


VA - Cuba Classics 3: ¡Diablo Al Infierno! (1992) {Luaka Bop} **[RE-UP]**