Subcategories

Manfred Hobeck - Beethoven: Symphony No. 3, Op. 55 "Eroica" - Strauss: Horn Concerto No. 1, Op. 11 (Live) (2018)

Posted By: SERTiL
Manfred Hobeck - Beethoven: Symphony No. 3, Op. 55 "Eroica" - Strauss: Horn Concerto No. 1, Op. 11 (Live) (2018)

Manfred Hobeck, Pittsburgh Symphony Orchestra - Beethoven: Symphony No. 3, Op. 55 "Eroica" - Strauss: Horn Concerto No. 1, Op. 11 (Live) (2018)
EAC Rip | FLAC (tracks+.cue, m3u, log) & d. booklet | 311 MB
Label: Reference Recordings / FR-728 | Tracks: 07 | Time: 65:11 min
Classical, Orchestral

Reference Recordings proudly presents these two iconic works in definitive interpretations from Manfred Honeck and the Pittsburgh Symphony Orchestra, in superb audiophile sound.

In his fascinating and scholarly music notes, Maestro Honeck gives us insight into the history of both pieces, and describes how he conducts and interprets each. He reminds us that the “Eroica” was a bold departure from earlier symphonies, a “dance symphony with dramatic inventiveness, full of new elements that had never been heard before.” He quotes Beethoven’s student Ferdinand Ries, who wrote “Beethoven played recently for me (the “Eroica”) and I believe both heaven and earth must tremble when it is performed.” Honeck puts his own inimitable stamp on this interpretation, giving the listener a chance to experience the novelties of the “Eroica” as if hearing it for the very first time.

William Caballero, Principal Horn of the Pittsburgh Symphony Orchestra and soloist on Strauss: Horn Concerto No. 1, provides a thrilling and masterful performance of this youthful Strauss work. Before joining PSO in 1989, he held Principal Horn positions with the Houston Symphony, Houston Grand Opera and Hartford Symphony. He has performed as guest Principal Horn with the Chicago Symphony Orchestra, the Cleveland Orchestra, the Philadelphia Orchestra, The Los Angeles Philharmonic, the Dallas Symphony Orchestra and the St. Louis Symphony. The booklet notes include his very interesting thoughts on the history and performance of the Concerto, in a question/answer format joined with Maestro Honeck.

The Pittsburgh Symphony Orchestra, known for its artistic excellence for more than 120 years, is credited with a rich history of the world’s finest conductors and musicians. Past music directors have included many of the greats, including Fritz Reiner, William Steinberg, Andre Previn, Lorin Maazel and Mariss Jansons. This tradition of outstanding international music directors was furthered in fall 2008, when Austrian conductor Manfred Honeck became music director of the Pittsburgh Symphony.

The orchestra has been at the forefront of championing new American works, and in the 2018/2019 season will premiere Mason Bates’ “Resurrexit,” a commission in honor of Manfred Honeck’s 60th birthday. The orchestra has an illustrious history in the areas of recordings and radio concerts dating back to the 1930s. And, with a long and distinguished history of touring both domestically and overseas since 1900 —including more than 37 international tours—the Pittsburgh Symphony continues to be critically acclaimed as one of the world’s greatest orchestras.

Tracklist:
1. Symphony No. 3 in E-Flat Major, Op. 55 "Eroica" : I. Allegro con brio 16:15
2. Symphony No. 3 in E-Flat Major, Op. 55 "Eroica" : II. Marcia funebre: Adagio assai 15:11
3. Symphony No. 3 in E-Flat Major, Op. 55 "Eroica" : III. Scherzo: Allegro vivace 05:36
4. Symphony No. 3 in E-Flat Major, Op. 55 "Eroica" : IV. Finale: Allegro molto 11:50
5. Horn Concerto No. 1 in E-Flat Major, Op. 11, TrV 117 : I. Allegro 05:20
6. Horn Concerto No. 1 in E-Flat Major, Op. 11, TrV 117 : II. Andante 05:36
7. Horn Concerto No. 1 in E-Flat Major, Op. 11, TrV 117 : III. Rondo: Allegro 05:25

Personnel:
William Caballero, horn (on tracks 5-7)
Pittsburgh Symphony Orchestra
Manfred Honeck, music director

Exact Audio Copy V1.3 from 2. September 2016

EAC extraction logfile from 23. September 2018, 0:36

Manfred Honeck, Pittsburgh Symphony Orchestra / Beethoven - Symphony No.3; Strauss - Horn Concerto No.1

Used drive : ATAPI iHAS424 Y Adapter: 1 ID: 4

Read mode : Secure
Utilize accurate stream : Yes
Defeat audio cache : Yes
Make use of C2 pointers : No

Read offset correction : 48
Overread into Lead-In and Lead-Out : No
Fill up missing offset samples with silence : Yes
Delete leading and trailing silent blocks : No
Null samples used in CRC calculations : Yes
Used interface : Installed external ASPI interface
Gap handling : Appended to previous track

Used output format : User Defined Encoder
Selected bitrate : 1024 kBit/s
Quality : High
Add ID3 tag : No
Command line compressor : C:\Program Files (Portable)\flac-1.3.2-win\win64\flac.exe
Additional command line options : -8 -V -T "ARTIST=%artist%" -T "TITLE=%title%" -T "ALBUM=%albumtitle%" -T "DATE=%year%" -T "TRACKNUMBER=%tracknr%" -T "GENRE=%genre%" -T "COMMENT=EAC Secure mode, Test & Copy, AccurateRip, FLAC -8" %hascover%–picture="%coverfile%"%hascover% %source% -o %dest%


TOC of the extracted CD

Track | Start | Length | Start sector | End sector
––––––––––––––––––––––––––––-
1 | 0:00.00 | 16:13.28 | 0 | 73002
2 | 16:13.28 | 15:11.39 | 73003 | 141366
3 | 31:24.67 | 5:36.74 | 141367 | 166640
4 | 37:01.66 | 11:50.65 | 166641 | 219955
5 | 48:52.56 | 5:20.38 | 219956 | 243993
6 | 54:13.19 | 5:36.31 | 243994 | 269224
7 | 59:49.50 | 5:25.20 | 269225 | 293619


Track 1

Filename F:\Uploads\Beethoven - Symphony No.3; Strauss - Horn Concerto No.1 - Caballero, Honeck, Pittsburgh SO [Reference FR-728SACD]\01 Symphony No.3 in E-flat Major, Op.55 'Eroica' - I. Allegro con brio.wav

Pre-gap length 0:00:02.00

Peak level 100.0 %
Extraction speed 3.2 X
Track quality 100.0 %
Test CRC 34AD6671
Copy CRC 34AD6671
Track not present in AccurateRip database
Copy OK

Track 2

Filename F:\Uploads\Beethoven - Symphony No.3; Strauss - Horn Concerto No.1 - Caballero, Honeck, Pittsburgh SO [Reference FR-728SACD]\02 Symphony No.3 in E-flat Major, Op.55 'Eroica' - II. Marcia funebre.wav

Peak level 100.0 %
Extraction speed 4.0 X
Track quality 100.0 %
Test CRC 8FAF61F1
Copy CRC 8FAF61F1
Track not present in AccurateRip database
Copy OK

Track 3

Filename F:\Uploads\Beethoven - Symphony No.3; Strauss - Horn Concerto No.1 - Caballero, Honeck, Pittsburgh SO [Reference FR-728SACD]\03 Symphony No.3 in E-flat Major, Op.55 'Eroica' - III. Scherzo.wav

Peak level 99.9 %
Extraction speed 3.8 X
Track quality 99.9 %
Test CRC 3BE203BC
Copy CRC 3BE203BC
Track not present in AccurateRip database
Copy OK

Track 4

Filename F:\Uploads\Beethoven - Symphony No.3; Strauss - Horn Concerto No.1 - Caballero, Honeck, Pittsburgh SO [Reference FR-728SACD]\04 Symphony No.3 in E-flat Major, Op.55 'Eroica' - IV. Finale.wav

Peak level 100.0 %
Extraction speed 4.8 X
Track quality 100.0 %
Test CRC AE278DD8
Copy CRC AE278DD8
Track not present in AccurateRip database
Copy OK

Track 5

Filename F:\Uploads\Beethoven - Symphony No.3; Strauss - Horn Concerto No.1 - Caballero, Honeck, Pittsburgh SO [Reference FR-728SACD]\05 Horn Concerto No.1 in E-flat major, Op.11 - I. Allegro.wav

Pre-gap length 0:00:09.48

Peak level 100.0 %
Extraction speed 4.8 X
Track quality 100.0 %
Test CRC 3BE821B1
Copy CRC 3BE821B1
Track not present in AccurateRip database
Copy OK

Track 6

Filename F:\Uploads\Beethoven - Symphony No.3; Strauss - Horn Concerto No.1 - Caballero, Honeck, Pittsburgh SO [Reference FR-728SACD]\06 Horn Concerto No.1 in E-flat major, Op.11 - II. Andante.wav

Peak level 90.6 %
Extraction speed 5.0 X
Track quality 100.0 %
Test CRC 108DFBD2
Copy CRC 108DFBD2
Track not present in AccurateRip database
Copy OK

Track 7

Filename F:\Uploads\Beethoven - Symphony No.3; Strauss - Horn Concerto No.1 - Caballero, Honeck, Pittsburgh SO [Reference FR-728SACD]\07 Horn Concerto No.1 in E-flat major, Op.11 - III. Allegro.wav

Peak level 100.0 %
Extraction speed 5.2 X
Track quality 100.0 %
Test CRC 047B2891
Copy CRC 047B2891
Track not present in AccurateRip database
Copy OK


None of the tracks are present in the AccurateRip database

No errors occurred

End of status report

–– CUETools DB Plugin V2.1.6

[CTDB TOCID: 4CErGlBEEM37XkhPVEg4m18csW8-] disk not present in database
Submit result: 4CErGlBEEM37XkhPVEg4m18csW8- has been uploaded


==== Log checksum 5AEB2033D8AB9ED3A3BE2FD3024555A7CDFCFE67F0EC21BE66C3E25A9C622DD7 ====


Manfred Hobeck - Beethoven: Symphony No. 3, Op. 55 "Eroica" - Strauss: Horn Concerto No. 1, Op. 11 (Live) (2018)