Tags
Language
Tags
February 2024
Su Mo Tu We Th Fr Sa
28 29 30 31 1 2 3
4 5 6 7 8 9 10
11 12 13 14 15 16 17
18 19 20 21 22 23 24
25 26 27 28 29 1 2
Attention❗ To save your time, in order to download anything on this site, you must be registered 👉 HERE. If you do not have a registration yet, it is better to do it right away. ✌

( • )( • ) ( ͡⚆ ͜ʖ ͡⚆ ) (‿ˠ‿)
SpicyMags.xyz

Ballaké Sissoko & Vincent Ségal - Chamber Music (2009) {No Format!}

Posted By: tiburon
Ballaké Sissoko & Vincent Ségal - Chamber Music (2009) {No Format!}

Ballaké Sissoko & Vincent Ségal - Chamber Music (2009) {No Format!}
EAC 1.0b2 | FLAC tracks level 8 | Cue+Log+M3U | Full Scans 600dpi | 310MB + 5% Recovery
MP3 CBR 320 Kbps | 125MB + 5% Recovery
Genre: African Folk, Ethnic Fusion
Ballaké Sissoko & Vincent Ségal - Chamber Music (2009) {No Format!}

Chamber Music is a collaboration between Ballake Sissoko, who plays the traditional kora, a lute-harp from Mali, and Vincent Segal, the French cellist who plays for the trip-hop band Bumcello. It is also, quite simply, one of the most elegant and beautiful recordings of world music in recent years. At a time when cross-cultural music has tended toward highly-caffeinated electric pop and dance music, Sissoke and Segal remind us that there is room and maybe even a need for a quieter, more refined world music. Both musicians have displayed an aptitude for defying expectations the list of trip-hop cellists is pretty short, after all. And Ballake Sissoko has become a familiar name on the world music scene through his work with American blues legend Taj Mahal and Italian minimalist Ludovico Einaudi, among others. But perhaps the combination of kora and cello works so well because there are no expectations for it. The collaboration grew out of a personal friendship, and at no point was there an attempt to produce a record that would be slick and hip and commercial. Yet it has become one of Europe's most buzzed-about worldmusic recordings in the past year. Chamber Music was recorded in the Moffou Studio, founded by the great Malian singer Salif Keita to provide a world-class environment for musicians wishing to record acoustic, perhaps even authentic,African music. (Keita's own acoustic album, Moffou, was recorded there.) The cello, of course, is not a traditional African instrument. But Chamber Music, in its depth of feeling and variety of moods, is authentically African. The kora may not appear in the duos, trios, or quartets of Beethoven, Schumann, or Brahms; but the obvious musical and personal connection between Ballake Sissoko and Vincent Segal also marks this as an authentic, if original, type of chamber music.
Track List
01 - Chamber Music
02 - Oscarine
03 - Houdesti
04 - Wo Ye N'Gnougobine
05 - Histoire de Molly
06 - ''Ma-ma'' FC
07 - Regret-a Kader Barry
08 - Halinkata Djoube
09 - Future
10 - Mako Mady

musicians
Ballaké Sissoko – kora
Vincent Segal – cello

Guests:
Lead vocal on "Regret" – Awa Sanagho
Ngoni on "Houdesti" – Mahamadou Kamissoko
Balafon on "Houdesti" – Fassery Diabate
Bolon on "Oscarine," "Halinkata Djoubé," and "Mako Mady"; karignan on "'Ma-Ma' FC," "Regret-À Kader Barry" – Demba Camara


Exact Audio Copy V1.0 beta 2 from 29. April 2011

EAC extraction logfile from 31. August 2011, 14:07

Ballake Sissoko & Vincent Segal / Chamber Music

Used drive : PLEXTOR DVDR PX-L890SA Adapter: 2 ID: 1

Read mode : Secure
Utilize accurate stream : Yes
Defeat audio cache : Yes
Make use of C2 pointers : No

Read offset correction : 6
Overread into Lead-In and Lead-Out : No
Fill up missing offset samples with silence : Yes
Delete leading and trailing silent blocks : No
Null samples used in CRC calculations : Yes
Used interface : Native Win32 interface for Win NT & 2000
Gap handling : Appended to previous track

Used output format : User Defined Encoder
Selected bitrate : 256 kBit/s
Quality : High
Add ID3 tag : No
Command line compressor : C:\Program Files (x86)\Exact Audio Copy\FLAC\FLAC.EXE
Additional command line options : -8 -V -T "ARTIST=%artist%" -T "TITLE=%title%" -T "ALBUM=%albumtitle%" -T "DATE=%year%" -T "TRACKNUMBER=%tracknr%" -T "TOTALTRACKS=%numtracks%" -T "GENRE=%genre%" -T "ALBUMARTIST=%albumartist%" -T "ALBUM ARTIST=%albumartist%


TOC of the extracted CD

Track | Start | Length | Start sector | End sector
––––––––––––––––––––––––––––-
1 | 0:00.00 | 5:31.31 | 0 | 24855
2 | 5:31.31 | 5:41.37 | 24856 | 50467
3 | 11:12.68 | 8:51.38 | 50468 | 90330
4 | 20:04.31 | 5:51.03 | 90331 | 116658
5 | 25:55.34 | 5:30.44 | 116659 | 141452
6 | 31:26.03 | 5:11.67 | 141453 | 164844
7 | 36:37.70 | 3:44.55 | 164845 | 181699
8 | 40:22.50 | 5:08.13 | 181700 | 204812
9 | 45:30.63 | 3:14.70 | 204813 | 219432
10 | 48:45.58 | 6:05.67 | 219433 | 246874


Track 1

Filename F:\Flac Rips\01 - Chamber Music.wav

Pre-gap length 0:00:02.00

Peak level 100.0 %
Extraction speed 3.8 X
Track quality 100.0 %
Test CRC D6230A9E
Copy CRC D6230A9E
Accurately ripped (confidence 14) [74645154] (AR v1)
Copy OK

Track 2

Filename F:\Flac Rips\02 - Oscarine.wav

Pre-gap length 0:00:03.19

Peak level 100.0 %
Extraction speed 4.4 X
Track quality 100.0 %
Test CRC 58647449
Copy CRC 58647449
Accurately ripped (confidence 15) [61660E12] (AR v1)
Copy OK

Track 3

Filename F:\Flac Rips\03 - Houdesti.wav

Pre-gap length 0:00:02.40

Peak level 100.0 %
Extraction speed 4.6 X
Track quality 99.9 %
Test CRC CEE257AC
Copy CRC CEE257AC
Accurately ripped (confidence 14) [54D0B5AB] (AR v1)
Copy OK

Track 4

Filename F:\Flac Rips\04 - Wo Ye N'Gnougobine.wav

Pre-gap length 0:00:03.73

Peak level 100.0 %
Extraction speed 5.5 X
Track quality 100.0 %
Test CRC A0085751
Copy CRC A0085751
Accurately ripped (confidence 13) [B6248A65] (AR v1)
Copy OK

Track 5

Filename F:\Flac Rips\05 - Histoire de Molly.wav

Pre-gap length 0:00:03.40

Peak level 100.0 %
Extraction speed 5.8 X
Track quality 100.0 %
Test CRC 99712C94
Copy CRC 99712C94
Accurately ripped (confidence 14) [DBBCA103] (AR v1)
Copy OK

Track 6

Filename F:\Flac Rips\06 - ''Ma-ma'' FC.wav

Pre-gap length 0:00:03.68

Peak level 100.0 %
Extraction speed 6.1 X
Track quality 100.0 %
Test CRC F1F0D2A4
Copy CRC F1F0D2A4
Accurately ripped (confidence 15) [66731758] (AR v1)
Copy OK

Track 7

Filename F:\Flac Rips\07 - Regret-a Kader Barry.wav

Pre-gap length 0:00:02.43

Peak level 100.0 %
Extraction speed 4.8 X
Track quality 99.9 %
Test CRC E14AC45C
Copy CRC E14AC45C
Accurately ripped (confidence 15) [9423A489] (AR v1)
Copy OK

Track 8

Filename F:\Flac Rips\08 - Halinkata Djoube.wav

Pre-gap length 0:00:02.01

Peak level 100.0 %
Extraction speed 6.6 X
Track quality 100.0 %
Test CRC BB12535D
Copy CRC BB12535D
Accurately ripped (confidence 15) [3F532538] (AR v1)
Copy OK

Track 9

Filename F:\Flac Rips\09 - Future.wav

Pre-gap length 0:00:04.01

Peak level 100.0 %
Extraction speed 6.4 X
Track quality 100.0 %
Test CRC 15BCB233
Copy CRC 15BCB233
Accurately ripped (confidence 15) [27C1BBC8] (AR v1)
Copy OK

Track 10

Filename F:\Flac Rips\10 - Mako Mady.wav

Pre-gap length 0:00:03.64

Peak level 100.0 %
Extraction speed 7.1 X
Track quality 100.0 %
Test CRC F552279A
Copy CRC F552279A
Accurately ripped (confidence 15) [18DD72BF] (AR v1)
Copy OK


All tracks accurately ripped

No errors occurred

End of status report

==== Log checksum 2569EBA67B16AC73AF1D9BBC914A8175B380A11CC574183503F34A63F700DC03 ====

Ballaké Sissoko & Vincent Ségal - Chamber Music (2009) {No Format!}
Ballaké Sissoko & Vincent Ségal - Chamber Music (2009) {No Format!}


Thanks to the original ripper