Subcategories
Tags
Language
Tags

Baiba Skride, Sakari Oramo, Lauma Skride - Brahms: Violin Concerto, Hungarian Dances (2011)

Posted By: tirexiss
Baiba Skride, Sakari Oramo, Lauma Skride - Brahms: Violin Concerto, Hungarian Dances (2011)

Baiba Skride, Sakari Oramo, Lauma Skride - Brahms: Violin Concerto, Hungarian Dances (2011)
EAC | FLAC (tracks+.cue, log) | Covers Included | 1:34:08 | 458 MB
Genre: Classical | Label: Orfeo | Catalog: C 829 112 A

Baiba Skride is not just one of the most sought-after artists when it comes to finding a soloist for one of the great violin concertos. She is also much in demand for chamber music. This makes her ideal for her new recording, her first on the ORFEO label, devoted to the work of Johannes Brahms. It is a highly promising start to our collaboration with this First-Prize winner of the Queen Elisabeth Competition in Brussels in 2001. Besides Brahms s Violin Concerto, she here offers his Hungarian Dances in the version for violin and piano made by Joseph Joachim. The long-standing musical partnership of Brahms and Joachim is reflected doubly here, for Joachim was also the dedicatee of the Concerto. Baiba Skride s Brahms interpretations are themselves characterized by happy musical constellations. In Sakari Oramo she has a conductor who is himself a violinist and who offers the appropriate momentum with the Royal Philharmonic in Stockholm. One clearly hears the energy and vigour with which every instrumental grouping plays. Thus the great arch of the work is perfectly formed, from the solo interjections (not just from the violin!) to the symphonic dialogue between the partners. The chamber-music intimacy of the Hungarian Dances could not be achieved more powerfully or more beautifully than in Baiba Skride s tried-and-tested duo partnership with her sister Lauma Skride at the piano. Unhindered by the pianistic violin part with its many double stoppings, Baiba develops an ensemble that is in tempo and in its gestures carefully moulded with the piano. The piano may have what is clearly an accompanying part, and Lauma Skride certainly adapts to her sister s playing in an unpretentious manner, but nor is her part understated. The result is a performance of these atmospheric dances that is at times resilient and fiery, at other times melodic, gentle and smooth. They belong just as much to Brahms s art as do the formal stringency and unity we find in his large-scale works and it is all the lovelier when we find all of this on a single CD recording.

Baiba Skride, Sakari Oramo, Lauma Skride - Brahms: Violin Concerto, Hungarian Dances (2011)

Track List:

CD 1:
Violin Concerto in D major, Op.77
01. I. Allegro non troppo (23:49)
02. II. Adagio (9:15)
03. III. Allegro giocoso, ma non troppo vivace (8:08)

Exact Audio Copy V1.0 beta 3 from 29. August 2011

EAC extraction logfile from 18. February 2012, 12:14

Baiba Skride; Stockholm Philharmonic; Sakari Oramo (conductor) / Brahms Violin Concerto and Hungarian Dances

Used drive : BENQ DVD DC DW240S Adapter: 2 ID: 0

Read mode : Secure
Utilize accurate stream : Yes
Defeat audio cache : Yes
Make use of C2 pointers : No

Read offset correction : 6
Overread into Lead-In and Lead-Out : No
Fill up missing offset samples with silence : Yes
Delete leading and trailing silent blocks : No
Null samples used in CRC calculations : Yes
Used interface : Native Win32 interface for Win NT & 2000
Gap handling : Appended to previous track

Used output format : User Defined Encoder
Selected bitrate : 1024 kBit/s
Quality : High
Add ID3 tag : No
Command line compressor : C:\Program Files (x86)\Exact Audio Copy\FLAC\FLAC.EXE
Additional command line options : -8 -V -T "ARTIST=%artist%" -T "TITLE=%title%" -T "ALBUM=%albumtitle%" -T "DATE=%year%" -T "TRACKNUMBER=%tracknr%" -T "GENRE=%genre%" -T "PERFORMER=%albuminterpret%" -T "COMPOSER=%composer%" %haslyrics%–tag-from-file=LYRICS="%lyricsfile%"%haslyrics% -T "ALBUMARTIST=%albumartist%" -T "DISCNUMBER=%cdnumber%" -T "TOTALDISCS=%totalcds%" -T "TOTALTRACKS=%numtracks%" -T "COMMENT=%comment%" %source% -o %dest%


TOC of the extracted CD

Track | Start | Length | Start sector | End sector
––––––––––––––––––––––––––––-
1 | 0:00.00 | 23:49.00 | 0 | 107174
2 | 23:49.00 | 9:15.00 | 107175 | 148799
3 | 33:04.00 | 8:08.00 | 148800 | 185399


Track 1

Filename J:\[2011] Skride Brahms VC and Hungarian Dances\Disc 1\01 - Violin Concerto in D Major, Op.77- I. Allegro non troppo.wav

Pre-gap length 0:00:02.00

Peak level 91.3 %
Extraction speed 6.1 X
Track quality 100.0 %
Test CRC 59DD1BD6
Copy CRC 59DD1BD6
Track not present in AccurateRip database
Copy OK

Track 2

Filename J:\[2011] Skride Brahms VC and Hungarian Dances\Disc 1\02 - Violin Concerto in D Major, Op.77- II. Adagio.wav

Peak level 76.0 %
Extraction speed 7.5 X
Track quality 100.0 %
Test CRC F077889F
Copy CRC F077889F
Track not present in AccurateRip database
Copy OK

Track 3

Filename J:\[2011] Skride Brahms VC and Hungarian Dances\Disc 1\03 - Violin Concerto in D Major, Op.77- III. Allegro giocoso, ma non troppo vivace.wav

Peak level 93.2 %
Extraction speed 8.1 X
Track quality 100.0 %
Test CRC AAB88F45
Copy CRC AAB88F45
Track not present in AccurateRip database
Copy OK


None of the tracks are present in the AccurateRip database

No errors occurred

End of status report

–– CUETools DB Plugin V2.1.3

[CTDB TOCID: CCyl7I80Aesing0vT_cwf0iYEOU-] disk not present in database, Submit result: CCyl7I80Aesing0vT_cwf0iYEOU- has been uploaded


==== Log checksum 63F107B75A838378F6A4ABFC51C62A29DE0492F6B0C5E26D9B80B2296431EFAC ====

CD 2 :
21 Hungarian Dances, WoO 1 (arr. for Violin & Piano)
01. Hungarian Dance in G minor, WoO 1 No.1 (3:14)
02. Hungarian Dance in D minor, WoO 1 No.2 (3:00)
03. Hungarian Dance in F major, WoO 1 No.3 (2:10)
04. Hungarian Dance in B minor, WoO 1 No.4 (3:53)
05. Hungarian Dance in G minor, WoO 1 No.5 (2:13)
06. Hungarian Dance in B-flat major, WoO 1 No.6 (3:24)
07. Hungarian Dance in A major, WoO 1 No.7 (1:53)
08. Hungarian Dance in A minor, WoO 1 No.8 (3:06)
09. Hungarian Dance in E minor, WoO 1 No.9 (2:12)
10. Hungarian Dance in G major, WoO 1 No.10 (1:50)
11. Hungarian Dance in D minor, WoO 1 No.11 (3:23)
12. Hungarian Dance in D minor, WoO 1 No.12 (2:30)
13. Hungarian Dance in D major, WoO 1 No.13 (1:37)
14. Hungarian Dance in D minor, WoO 1 No.14 (2:07)
15. Hungarian Dance in A major, WoO 1 No.15 (2:49)
16. Hungarian Dance in G minor, WoO 1 No.16 (2:57)
17. Hungarian Dance in F-sharp minor, WoO 1 No.17 (3:07)
18. Hungarian Dance in D major, WoO 1 No.18 (1:34)
19. Hungarian Dance in A minor, WoO 1 No.19 (1:58)
20. Hungarian Dance in D minor, WoO 1 No.20 (2:29)
21. Hungarian Dance in E minor, WoO 1 No.21 (1:30)

Exact Audio Copy V1.0 beta 3 from 29. August 2011

EAC extraction logfile from 18. February 2012, 13:00

Baiba Skride; Lauma Skride / Brahms Violin Concerto & Hungarian Dances

Used drive : BENQ DVD DC DW240S Adapter: 2 ID: 0

Read mode : Secure
Utilize accurate stream : Yes
Defeat audio cache : Yes
Make use of C2 pointers : No

Read offset correction : 6
Overread into Lead-In and Lead-Out : No
Fill up missing offset samples with silence : Yes
Delete leading and trailing silent blocks : No
Null samples used in CRC calculations : Yes
Used interface : Native Win32 interface for Win NT & 2000
Gap handling : Appended to previous track

Used output format : User Defined Encoder
Selected bitrate : 1024 kBit/s
Quality : High
Add ID3 tag : No
Command line compressor : C:\Program Files (x86)\Exact Audio Copy\FLAC\FLAC.EXE
Additional command line options : -8 -V -T "ARTIST=%artist%" -T "TITLE=%title%" -T "ALBUM=%albumtitle%" -T "DATE=%year%" -T "TRACKNUMBER=%tracknr%" -T "GENRE=%genre%" -T "PERFORMER=%albuminterpret%" -T "COMPOSER=%composer%" %haslyrics%–tag-from-file=LYRICS="%lyricsfile%"%haslyrics% -T "ALBUMARTIST=%albumartist%" -T "DISCNUMBER=%cdnumber%" -T "TOTALDISCS=%totalcds%" -T "TOTALTRACKS=%numtracks%" -T "COMMENT=%comment%" %source% -o %dest%


TOC of the extracted CD

Track | Start | Length | Start sector | End sector
––––––––––––––––––––––––––––-
1 | 0:00.00 | 3:14.00 | 0 | 14549
2 | 3:14.00 | 3:00.00 | 14550 | 28049
3 | 6:14.00 | 2:10.00 | 28050 | 37799
4 | 8:24.00 | 3:53.00 | 37800 | 55274
5 | 12:17.00 | 2:13.00 | 55275 | 65249
6 | 14:30.00 | 3:24.00 | 65250 | 80549
7 | 17:54.00 | 1:53.00 | 80550 | 89024
8 | 19:47.00 | 3:06.00 | 89025 | 102974
9 | 22:53.00 | 2:12.00 | 102975 | 112874
10 | 25:05.00 | 1:50.00 | 112875 | 121124
11 | 26:55.00 | 3:23.00 | 121125 | 136349
12 | 30:18.00 | 2:30.00 | 136350 | 147599
13 | 32:48.00 | 1:37.00 | 147600 | 154874
14 | 34:25.00 | 2:07.00 | 154875 | 164399
15 | 36:32.00 | 2:49.00 | 164400 | 177074
16 | 39:21.00 | 2:57.00 | 177075 | 190349
17 | 42:18.00 | 3:07.00 | 190350 | 204374
18 | 45:25.00 | 1:34.00 | 204375 | 211424
19 | 46:59.00 | 1:58.00 | 211425 | 220274
20 | 48:57.00 | 2:29.00 | 220275 | 231449
21 | 51:26.00 | 1:30.00 | 231450 | 238199


Track 1

Filename J:\[2011] Skride Brahms VC and Hungarian Dances\Disc 2\01 - Hungarian Dance No.1, Allegro molto.wav

Pre-gap length 0:00:02.00

Peak level 91.2 %
Extraction speed 4.3 X
Track quality 100.0 %
Test CRC 23CCC7A9
Copy CRC 23CCC7A9
Track not present in AccurateRip database
Copy OK

Track 2

Filename J:\[2011] Skride Brahms VC and Hungarian Dances\Disc 2\02 - Hungarian Dance No.2, Allegro assai.wav

Pre-gap length 0:00:05.00

Peak level 87.4 %
Extraction speed 4.6 X
Track quality 100.0 %
Test CRC 6F7942FD
Copy CRC 6F7942FD
Track not present in AccurateRip database
Copy OK

Track 3

Filename J:\[2011] Skride Brahms VC and Hungarian Dances\Disc 2\03 - Hungarian Dance No.3, Allegretto.wav

Pre-gap length 0:00:05.00

Peak level 85.2 %
Extraction speed 4.6 X
Track quality 100.0 %
Test CRC A8AAD590
Copy CRC A8AAD590
Track not present in AccurateRip database
Copy OK

Track 4

Filename J:\[2011] Skride Brahms VC and Hungarian Dances\Disc 2\04 - Hungarian Dance No.4, Poco sostenuto.wav

Pre-gap length 0:00:05.00

Peak level 76.6 %
Extraction speed 5.4 X
Track quality 100.0 %
Test CRC 4314A56D
Copy CRC 4314A56D
Track not present in AccurateRip database
Copy OK

Track 5

Filename J:\[2011] Skride Brahms VC and Hungarian Dances\Disc 2\05 - Hungarian Dance No.5, Allegro.wav

Pre-gap length 0:00:05.00

Peak level 95.8 %
Extraction speed 5.1 X
Track quality 100.0 %
Test CRC 33479B33
Copy CRC 33479B33
Track not present in AccurateRip database
Copy OK

Track 6

Filename J:\[2011] Skride Brahms VC and Hungarian Dances\Disc 2\06 - Hungarian Dance No.6, Vivace.wav

Pre-gap length 0:00:05.00

Peak level 98.8 %
Extraction speed 5.8 X
Track quality 100.0 %
Test CRC 5B6E8B21
Copy CRC 5B6E8B21
Track not present in AccurateRip database
Copy OK

Track 7

Filename J:\[2011] Skride Brahms VC and Hungarian Dances\Disc 2\07 - Hungarian Dance No.7, Allegretto.wav

Pre-gap length 0:00:05.00

Peak level 98.8 %
Extraction speed 5.4 X
Track quality 100.0 %
Test CRC A3C68A12
Copy CRC A3C68A12
Track not present in AccurateRip database
Copy OK

Track 8

Filename J:\[2011] Skride Brahms VC and Hungarian Dances\Disc 2\08 - Hungarian Dance No.8, Presto.wav

Pre-gap length 0:00:05.00

Peak level 98.8 %
Extraction speed 6.2 X
Track quality 100.0 %
Test CRC 21D15480
Copy CRC 21D15480
Track not present in AccurateRip database
Copy OK

Track 9

Filename J:\[2011] Skride Brahms VC and Hungarian Dances\Disc 2\09 - Hungarian Dance No.9, Allegro non troppo.wav

Pre-gap length 0:00:05.00

Peak level 68.2 %
Extraction speed 5.9 X
Track quality 100.0 %
Test CRC 5C9C4E4A
Copy CRC 5C9C4E4A
Track not present in AccurateRip database
Copy OK

Track 10

Filename J:\[2011] Skride Brahms VC and Hungarian Dances\Disc 2\10 - Hungarian Dance No.10, Presto.wav

Pre-gap length 0:00:05.00

Peak level 89.9 %
Extraction speed 5.8 X
Track quality 100.0 %
Test CRC ECDC30DA
Copy CRC ECDC30DA
Track not present in AccurateRip database
Copy OK

Track 11

Filename J:\[2011] Skride Brahms VC and Hungarian Dances\Disc 2\11 - Hungarian Dance No.11, Poco Andante.wav

Pre-gap length 0:00:05.00

Peak level 64.0 %
Extraction speed 6.8 X
Track quality 100.0 %
Test CRC 7353175D
Copy CRC 7353175D
Track not present in AccurateRip database
Copy OK

Track 12

Filename J:\[2011] Skride Brahms VC and Hungarian Dances\Disc 2\12 - Hungarian Dance No.12, Presto.wav

Pre-gap length 0:00:05.00

Peak level 89.1 %
Extraction speed 6.6 X
Track quality 100.0 %
Test CRC 8E8819E1
Copy CRC 8E8819E1
Track not present in AccurateRip database
Copy OK

Track 13

Filename J:\[2011] Skride Brahms VC and Hungarian Dances\Disc 2\13 - Hungarian Dance No.13, Andantino grazioso.wav

Pre-gap length 0:00:05.00

Peak level 98.8 %
Extraction speed 6.1 X
Track quality 100.0 %
Test CRC CE17D109
Copy CRC CE17D109
Track not present in AccurateRip database
Copy OK

Track 14

Filename J:\[2011] Skride Brahms VC and Hungarian Dances\Disc 2\14 - Hungarian Dance No.14, Un poco Andante.wav

Pre-gap length 0:00:05.00

Peak level 72.0 %
Extraction speed 6.5 X
Track quality 100.0 %
Test CRC E11AD2D6
Copy CRC E11AD2D6
Track not present in AccurateRip database
Copy OK

Track 15

Filename J:\[2011] Skride Brahms VC and Hungarian Dances\Disc 2\15 - Hungarian Dance No.15, Allegretto grazioso.wav

Pre-gap length 0:00:05.00

Peak level 80.9 %
Extraction speed 5.5 X
Track quality 99.9 %
Test CRC 079671DD
Copy CRC 079671DD
Track not present in AccurateRip database
Copy OK

Track 16

Filename J:\[2011] Skride Brahms VC and Hungarian Dances\Disc 2\16 - Hungarian Dance No.16, Con moto.wav

Pre-gap length 0:00:05.00

Peak level 73.7 %
Extraction speed 7.4 X
Track quality 100.0 %
Test CRC AE8ED291
Copy CRC AE8ED291
Track not present in AccurateRip database
Copy OK

Track 17

Filename J:\[2011] Skride Brahms VC and Hungarian Dances\Disc 2\17 - Hungarian Dance No.17, Andantino.wav

Pre-gap length 0:00:05.00

Peak level 86.7 %
Extraction speed 7.6 X
Track quality 100.0 %
Test CRC F76CAAD1
Copy CRC F76CAAD1
Track not present in AccurateRip database
Copy OK

Track 18

Filename J:\[2011] Skride Brahms VC and Hungarian Dances\Disc 2\18 - Hungarian Dance No.18, Molto vivace.wav

Pre-gap length 0:00:05.00

Peak level 95.3 %
Extraction speed 6.7 X
Track quality 100.0 %
Test CRC AE1135EA
Copy CRC AE1135EA
Track not present in AccurateRip database
Copy OK

Track 19

Filename J:\[2011] Skride Brahms VC and Hungarian Dances\Disc 2\19 - Hungarian Dance No.19, Allegretto.wav

Pre-gap length 0:00:05.00

Peak level 84.3 %
Extraction speed 7.2 X
Track quality 100.0 %
Test CRC 34E6937F
Copy CRC 34E6937F
Track not present in AccurateRip database
Copy OK

Track 20

Filename J:\[2011] Skride Brahms VC and Hungarian Dances\Disc 2\20 - Hungarian Dance No.20, Poco Allegretto.wav

Pre-gap length 0:00:05.00

Peak level 86.4 %
Extraction speed 7.7 X
Track quality 100.0 %
Test CRC F6C701DB
Copy CRC F6C701DB
Track not present in AccurateRip database
Copy OK

Track 21

Filename J:\[2011] Skride Brahms VC and Hungarian Dances\Disc 2\21 - Hungarian Dance No.21, Vivace.wav

Pre-gap length 0:00:05.00

Peak level 78.1 %
Extraction speed 4.6 X
Track quality 99.8 %
Test CRC 35369CAA
Copy CRC 35369CAA
Track not present in AccurateRip database
Copy OK


None of the tracks are present in the AccurateRip database

No errors occurred

End of status report

–– CUETools DB Plugin V2.1.3

[CTDB TOCID: 6QcoLBR2ljvcJoo_LB9wbmAkK7I-] disk not present in database, Submit result: 6QcoLBR2ljvcJoo_LB9wbmAkK7I- has been uploaded


==== Log checksum E755246E28CB4248D4A305BE644D3EDE59D88ED094CBB303CF4735EF2448BCBB ====

Performers:
Baiba Skride - violin
Royal Stockholm Philharmonic Orchestra (CD1)
Sakari Oramo - conductor (CD1)
Lauma Skride - piano (CD2)

Thanks to the Original ripper (unknown)!

Download: