Subcategories

Andrew Lawrence-King - Harp Music of the Italian Renaissance (2004)

Posted By: tirexiss
Andrew Lawrence-King - Harp Music of the Italian Renaissance (2004)

Andrew Lawrence-King - Harp Music of the Italian Renaissance (2004)
EAC | FLAC (image+.cue, log) | Covers + Digital Booklet | 60:03 | 293 MB
Genre: Classical | Label: Hyperion | Catalog: CDH55162

I believe that this was Andrew Lawrence-King's first recording (1986) – a sterling effort which is ample proof of why he went on to become a well-established figure in his field. He has appeared on numerous recordings, including many with Jordi Savall's Hesperian XX, and is currently the director of the Harp Consort. The program is both musically interesting and eminently listenable; and given Lawrence-King's credentials (he won an Organ Scholarship to Selwyn College, Cambridge and completed his studies at the London Early Music Centre), his understanding of the material is unquestionably comprehensive. His technical execution is equally impressive.
Half of the disc is taken up by six pieces from Trabaci, a harpist, organist and singer who was an important forerunner of Frescobaldi; the remainder comes from a variety of composers all of whom lived between the late sixteenth and mid-seventeenth centuries. If the music itself sounds like it could just as easily be heard on the lute or keyboard, that's because it originally was. In fact, all of the pieces here were written for these instruments (or voice), as very little music that was written for harp during this period has survived. The chromatic double harp is an ideal vehicle for these works, which range from love songs and dance music to madrigals. There's a peaceful simplicity to much of this music that transports the listener to another place and time.

Andrew Lawrence-King - Harp Music of the Italian Renaissance (2004)

Track List:

01. Giovanni Maria Trabaci: Toccata Seconda & Ligature
02. Giovanni Maria Trabaci: Gagliarda Terza a 4, detta la Talianella
03. Giovanni Maria Trabaci: Ancidetemi pur
04. Giovanni Maria Trabaci: Gagliarda Terza a 5, sopra La Mantoana
05. Giovanni Maria Trabaci: Partite sopra Zefiro
06. Giovanni Maria Trabaci: Gagliarda Quarta, alla Spagnola
07. Cesare Negri: La Barriera
08. Anonymous (1517): Vergine Bella
09. Cesare Negri: Brando per Quattro Pastore e Quattro Ninfe
10. Ascanio Mayone: Toccata Prima
11. Anonymous (early 17th c.): Gagliarda Prima
12. Fabrizio Fillimarino: Canzon Cromatica
13. Giuliano Caccini: Amarilli mia bella

Performers:
Andrew Lawrence-King, arpa doppia

Exact Audio Copy V1.1 from 23. June 2015

EAC extraction logfile from 6. December 2016, 21:33

Andrew Lawrence-King / Harp Music of the Italian Renaissance

Used drive : HL-DT-STDVDRAM GU70N Adapter: 1 ID: 0

Read mode : Secure
Utilize accurate stream : Yes
Defeat audio cache : Yes
Make use of C2 pointers : No

Read offset correction : 48
Overread into Lead-In and Lead-Out : No
Fill up missing offset samples with silence : Yes
Delete leading and trailing silent blocks : No
Null samples used in CRC calculations : Yes
Used interface : Native Win32 interface for Win NT & 2000

Used output format : User Defined Encoder
Selected bitrate : 128 kBit/s
Quality : High
Add ID3 tag : No
Command line compressor : C:\Program Files (x86)\Exact Audio Copy\Flac\flac.exe
Additional command line options : -V -8 -T "Date=%year%" -T "Genre=%genre%" %source%


TOC of the extracted CD

Track | Start | Length | Start sector | End sector
––––––––––––––––––––––––––––-
1 | 0:00.00 | 2:56.60 | 0 | 13259
2 | 2:56.60 | 2:20.30 | 13260 | 23789
3 | 5:17.15 | 7:22.17 | 23790 | 56956
4 | 12:39.32 | 3:34.00 | 56957 | 73006
5 | 16:13.32 | 10:57.73 | 73007 | 122354
6 | 27:11.30 | 4:30.10 | 122355 | 142614
7 | 31:41.40 | 4:14.32 | 142615 | 161696
8 | 35:55.72 | 2:43.18 | 161697 | 173939
9 | 38:39.15 | 5:39.12 | 173940 | 199376
10 | 44:18.27 | 5:10.13 | 199377 | 222639
11 | 49:28.40 | 2:50.40 | 222640 | 235429
12 | 52:19.05 | 4:10.70 | 235430 | 254249
13 | 56:30.00 | 3:26.07 | 254250 | 269706


Range status and errors

Selected range

Filename C:\temp\CDH55162 - Harp Music of the Italian Renaissance\Harp Music of the Italian Renaissance.wav

Peak level 100.0 %
Extraction speed 2.1 X
Range quality 100.0 %
Test CRC 99F8989A
Copy CRC 99F8989A
Copy OK

No errors occurred


AccurateRip summary

Track 1 accurately ripped (confidence 4) [0EC8311A] (AR v2)
Track 2 accurately ripped (confidence 4) [E7522C45] (AR v2)
Track 3 accurately ripped (confidence 4) [715D10E3] (AR v2)
Track 4 accurately ripped (confidence 4) [01FB99B5] (AR v2)
Track 5 accurately ripped (confidence 4) [5A3181F2] (AR v2)
Track 6 accurately ripped (confidence 4) [3DBFBF0B] (AR v2)
Track 7 accurately ripped (confidence 4) [DB221986] (AR v2)
Track 8 accurately ripped (confidence 4) [FB5DE4F2] (AR v2)
Track 9 accurately ripped (confidence 4) [492922FF] (AR v2)
Track 10 accurately ripped (confidence 4) [C143D2D6] (AR v2)
Track 11 accurately ripped (confidence 4) [5AEAD522] (AR v2)
Track 12 accurately ripped (confidence 3) [27D034F3] (AR v2)
Track 13 accurately ripped (confidence 4) [E9905052] (AR v2)

All tracks accurately ripped

End of status report

==== Log checksum 9C810B35F480F762D0A2A7CFC2AB267C7572C9479204488BF6FB7D4E2139B472 ====

[CUETools log; Date: 06.02.2017 17:45:08; Version: 2.1.5]
[CTDB TOCID: LjyMdV4Lyu.meBpITT7gCRsZlY8-] found.
Track | CTDB Status
1 | (17/17) Accurately ripped
2 | (17/17) Accurately ripped
3 | (17/17) Accurately ripped
4 | (17/17) Accurately ripped
5 | (17/17) Accurately ripped
6 | (17/17) Accurately ripped
7 | (17/17) Accurately ripped
8 | (17/17) Accurately ripped
9 | (16/17) Accurately ripped
10 | (17/17) Accurately ripped
11 | (17/17) Accurately ripped
12 | (17/17) Accurately ripped
13 | (16/17) Accurately ripped
[AccurateRip ID: 001dbd61-012b8cef-ad0e0c0d] found.
Track [ CRC | V2 ] Status
01 [dc07e98b|0ec8311a] (04+04/14) Accurately ripped
02 [3b782aa6|e7522c45] (04+04/16) Accurately ripped
03 [4a072a25|715d10e3] (04+04/16) Accurately ripped
04 [89827d37|01fb99b5] (04+04/16) Accurately ripped
05 [1ff6dadd|5a3181f2] (04+04/16) Accurately ripped
06 [f8f274cf|3dbfbf0b] (04+04/16) Accurately ripped
07 [6cd7e0b4|db221986] (04+04/16) Accurately ripped
08 [3e2b1403|fb5de4f2] (03+04/15) Accurately ripped
09 [a5749347|492922ff] (03+04/13) Accurately ripped
10 [9dd50637|c143d2d6] (04+04/16) Accurately ripped
11 [b1baad68|5aead522] (04+04/16) Accurately ripped
12 [6c7a5cc1|27d034f3] (03+03/12) Accurately ripped
13 [3cc90751|e9905052] (04+04/16) Accurately ripped
Offsetted by -690:
01 [b863d3d9] (02/14) Accurately ripped
02 [db0d558e] (02/16) Accurately ripped
03 [fb730e00] (02/16) Accurately ripped
04 [edb4b8a4] (02/16) Accurately ripped
05 [4d0bb7a4] (02/16) Accurately ripped
06 [7b15f191] (02/16) Accurately ripped
07 [f5d3244d] (02/16) Accurately ripped
08 [82fb5825] (02/15) Accurately ripped
09 [0422eceb] (02/13) Accurately ripped
10 [78036d00] (02/16) Accurately ripped
11 [dbb5f95a] (02/16) Accurately ripped
12 [86c6869a] (02/12) Accurately ripped
13 [0729e4a7] (02/16) Accurately ripped
Offsetted by -1330:
01 [89387406] (00/14) No match (V2 was not tested)
02 [f958d2f9] (00/16) No match (V2 was not tested)
03 [6b811078] (00/16) No match (V2 was not tested)
04 [0e8bd347] (00/16) No match (V2 was not tested)
05 [88ab54ce] (00/16) No match (V2 was not tested)
06 [5cebe895] (00/16) No match (V2 was not tested)
07 [8b0d9f41] (00/16) No match (V2 was not tested)
08 [dcf7e03d] (00/15) No match (V2 was not tested)
09 [2a22c561] (00/13) No match (V2 was not tested)
10 [e31fed88] (00/16) No match (V2 was not tested)
11 [bab8e93d] (00/16) No match (V2 was not tested)
12 [1c772be1] (00/12) No match (V2 was not tested)
13 [b1b59af3] (00/16) No match (V2 was not tested)
Offsetted by -1304:
01 [ea508985] (00/14) No match (V2 was not tested)
02 [068437f8] (00/16) No match (V2 was not tested)
03 [f71db305] (00/16) No match (V2 was not tested)
04 [19971bca] (00/16) No match (V2 was not tested)
05 [fa1a44b6] (00/16) No match (V2 was not tested)
06 [e4d63051] (00/16) No match (V2 was not tested)
07 [3f5cb319] (00/16) No match (V2 was not tested)
08 [79b304da] (00/15) No match (V2 was not tested)
09 [e62b03d9] (00/13) No match (V2 was not tested)
10 [123724f3] (00/16) No match (V2 was not tested)
11 [21fa08ae] (00/16) No match (V2 was not tested)
12 [4ddac29e] (00/12) No match (V2 was not tested)
13 [6e3f1bbe] (00/16) No match (V2 was not tested)
Offsetted by -664:
01 [d031ee8e] (00/14) No match (V2 was not tested)
02 [5bd31b47] (00/16) No match (V2 was not tested)
03 [c440c2c9] (00/16) No match (V2 was not tested)
04 [3344217a] (00/16) No match (V2 was not tested)
05 [de16090b] (00/16) No match (V2 was not tested)
06 [e4c08ffc] (00/16) No match (V2 was not tested)
07 [3ee96a40] (00/16) No match (V2 was not tested)
08 [48465ec0] (00/15) No match (V2 was not tested)
09 [215fa460] (00/13) No match (V2 was not tested)
10 [bf86c942] (00/16) No match (V2 was not tested)
11 [c4d6da3f] (00/16) No match (V2 was not tested)
12 [070d79e1] (00/12) No match (V2 was not tested)
13 [2d1fbacb] (00/16) No match (V2 was not tested)
Offsetted by -654:
01 [148580c7] (02/14) Accurately ripped
02 [b19e857a] (02/16) Accurately ripped
03 [85a16308] (02/16) Accurately ripped
04 [15a05d04] (02/16) Accurately ripped
05 [e814bdc5] (02/16) Accurately ripped
06 [40db1222] (02/16) Accurately ripped
07 [02a42034] (02/16) Accurately ripped
08 [e8aac660] (02/15) Accurately ripped
09 [f662d8cd] (00/13) No match (V2 was not tested)
10 [c7d06ead] (02/16) Accurately ripped
11 [b767bdc5] (02/16) Accurately ripped
12 [c0736545] (00/12) No match (V2 was not tested)
13 [02c26bee] (02/16) Accurately ripped

Track Peak [ CRC32 ] [W/O NULL] [ LOG ]
– 100,0 [99F8989A] [A57B767B] CRC32
01 69,9 [98B7CF36] [EA5101B4]
02 70,9 [3B2B3E2C] [DCFA93D8]
03 100,0 [EAA5065E] [9517737C]
04 72,4 [C5A9B59D] [4719CA1E]
05 83,5 [1CB5EA87] [D4F70460]
06 67,6 [F4ECB664] [2C946D73]
07 100,0 [7D235FDB] [20D646F6]
08 74,9 [DA31C4F4] [898E2390]
09 88,0 [225BBE63] [691EC4EB]
10 66,6 [7D260260] [6A710FEB]
11 99,3 [25CEA7C1] [89CAFF58]
12 66,5 [E6F553CE] [7CAFF833]
13 66,0 [F042BAC7] [011956AC]

Thanks to the Original ripper A-Z!

Download: