Subcategories
Tags
Language
Tags

VA - Across The Universe: Music From The Motion Picture (2007) [2CD, Deluxe Edition] Repost

Posted By: v3122
VA - Across The Universe: Music From The Motion Picture (2007) [2CD, Deluxe Edition] Repost

VA - Across The Universe: Music From The Motion Picture (2007)
EAC | Flac(Image) + Cue + Log & MP3 CBR 320Kbps
2CD | Interscope Records, 0602517469501 | ~ 638 or 241 Mb | Scans(jpg) -> 121 Mb
Soundtrack

Following the release of the original soundtrack by just a matter of a month (thereby ensuring the irritation of some fans), the deluxe version of Across the Universe is a double-disc, 29-track set containing almost all of the songs featured in Julie Taymor's film, all presented in the order they are in the film. The very fact that this expanded version appeared so closely after the original single-disc soundtrack is bound to confuse fans of the film, but what will confuse them even more is that there is another double-disc version of Across the Universe that contains all 31 songs featured in the film, including "I Want You (She's So Heavy)" and "Why Don't We Do It in the Road." That longer version only appeared at Best Buy and iTunes, which is frustrating because anybody who loves this film enough to have all the music should be able to acquire it easily, especially since the single-disc version really has all the noteworthy moments that will interest casual fans. So, this is a compromised version – one that is just close enough to having it all to seem to satisfy, but in truth it's far enough away from its goal to be truly maddening.

by Stephen Thomas Erlewine, allmusic
VA - Across The Universe: Music From The Motion Picture (2007):

VA - Across The Universe: Music From The Motion Picture (2007) [2CD, Deluxe Edition] Repost

Tracklist CD1:

01. Girl (Jim Sturgess) 1:04
02. Hold Me Tight (Evan Rachel Wood) 2:36
03. All My Loving (Jim Sturgess) 2:27
04. I Want To Hold Your Hand (T.V. Carpio) 2:47
05. With A Little Help From My Friends (Joe Anderson And Jim Sturgess) 3:13
06. It Won't Be Long (Evan Rachel Wood) 2:18
07. I've Just Seen A Face (Jim Sturgess) 1:50
08. Let It Be (Carol Woods And Timothy T. Mitchum) 3:48
09. Come Together (Joe Cocker) 4:27
10. Why Don't We Do It In The Road? (Dana Fuchs) 1:23
11. If I Fell (Evan Rachel Wood) 2:40
12. I Want You (She's So Heavy) (Joe Anderson, Dana Fuchs And T.V. Carpio) 3:44
13. Dear Prudence (Dana Fuchs, Jim Sturgess, Evan Rachel Wood) 5:19
14. Flying (Secret Machines) 3:57
15. Blue Jay Way (Secret Machines) 4:42

Exact Audio Copy V1.3 from 2. September 2016

EAC extraction logfile from 7. August 2018, 19:17

Various Artists / Across The Universe (Disc 1) (0602517469501)

Used drive : ASUS DRW-24D5MT Adapter: 1 ID: 0

Read mode : Secure
Utilize accurate stream : Yes
Defeat audio cache : Yes
Make use of C2 pointers : No

Read offset correction : 6
Overread into Lead-In and Lead-Out : No
Fill up missing offset samples with silence : Yes
Delete leading and trailing silent blocks : No
Null samples used in CRC calculations : Yes
Used interface : Native Win32 interface for Win NT & 2000

Used output format : User Defined Encoder
Selected bitrate : 768 kBit/s
Quality : High
Add ID3 tag : No
Command line compressor : C:\Program Files (x86)\Exact Audio Copy\Flac\flac.exe
Additional command line options : -V -8 -T "Genre=%genre%" -T "Artist=%artist%" -T "Title=%title%" -T "Album=%albumtitle%" -T "Date=%year%" -T "Tracknumber=%tracknr%" -T "Comment=%comment%" %source%


TOC of the extracted CD

Track | Start | Length | Start sector | End sector
––––––––––––––––––––––––––––-
1 | 0:00.00 | 1:04.24 | 0 | 4823
2 | 1:04.24 | 2:36.14 | 4824 | 16537
3 | 3:40.38 | 2:27.32 | 16538 | 27594
4 | 6:07.70 | 2:47.30 | 27595 | 40149
5 | 8:55.25 | 3:13.11 | 40150 | 54635
6 | 12:08.36 | 2:18.00 | 54636 | 64985
7 | 14:26.36 | 1:50.06 | 64986 | 73241
8 | 16:16.42 | 3:48.37 | 73242 | 90378
9 | 20:05.04 | 4:26.38 | 90379 | 110366
10 | 24:31.42 | 1:22.69 | 110367 | 116585
11 | 25:54.36 | 2:40.33 | 116586 | 128618
12 | 28:34.69 | 3:44.24 | 128619 | 145442
13 | 32:19.18 | 5:18.52 | 145443 | 169344
14 | 37:37.70 | 3:56.62 | 169345 | 187106
15 | 41:34.57 | 4:42.00 | 187107 | 208256


Range status and errors

Selected range

Filename H:\dafnaplus\VA - Across The Universe\Disc 1\Various Artists - Across The Universe (Disc 1) (0602517469501).wav

Peak level 98.8 %
Extraction speed 6.5 X
Range quality 100.0 %
Test CRC 183AAD86
Copy CRC 183AAD86
Copy OK

No errors occurred


AccurateRip summary

Track 1 accurately ripped (confidence 55) [3A374990] (AR v2)
Track 2 accurately ripped (confidence 55) [0D1FD77F] (AR v2)
Track 3 accurately ripped (confidence 56) [61D119D9] (AR v2)
Track 4 accurately ripped (confidence 55) [E8F436D8] (AR v2)
Track 5 accurately ripped (confidence 55) [BEF16307] (AR v2)
Track 6 accurately ripped (confidence 55) [DE0D072F] (AR v2)
Track 7 accurately ripped (confidence 55) [59959E08] (AR v2)
Track 8 accurately ripped (confidence 55) [A979BC3F] (AR v2)
Track 9 accurately ripped (confidence 54) [245C4E98] (AR v2)
Track 10 accurately ripped (confidence 55) [AC8DDA30] (AR v2)
Track 11 accurately ripped (confidence 55) [B2E3AD41] (AR v2)
Track 12 accurately ripped (confidence 55) [21B8501C] (AR v2)
Track 13 accurately ripped (confidence 55) [EE7EC0E3] (AR v2)
Track 14 accurately ripped (confidence 55) [971C2ED5] (AR v2)
Track 15 accurately ripped (confidence 51) [565F1201] (AR v2)

All tracks accurately ripped

End of status report

–– CUETools DB Plugin V2.1.6

[CTDB TOCID: 5ezQOVifjIwf76M17bRfvCTxq8M-] found
Submit result: 5ezQOVifjIwf76M17bRfvCTxq8M- has been confirmed
Track | CTDB Status
1 | (95/95) Accurately ripped
2 | (93/95) Accurately ripped
3 | (93/95) Accurately ripped
4 | (95/95) Accurately ripped
5 | (95/95) Accurately ripped
6 | (94/95) Accurately ripped
7 | (93/95) Accurately ripped
8 | (93/95) Accurately ripped
9 | (95/95) Accurately ripped
10 | (95/95) Accurately ripped
11 | (93/95) Accurately ripped
12 | (94/95) Accurately ripped
13 | (95/95) Accurately ripped
14 | (95/95) Accurately ripped
15 | (93/95) Accurately ripped


==== Log checksum 8EA2098D488330FB72F0C83ACD930BF49BD018FE650ECB26B570F74FF8ACB49E ====


[CUETools log; Date: 09.08.2018 8:55:49; Version: 2.1.5]
[CTDB TOCID: 5ezQOVifjIwf76M17bRfvCTxq8M-] found.
Track | CTDB Status
1 | (96/96) Accurately ripped
2 | (94/96) Accurately ripped
3 | (94/96) Accurately ripped
4 | (96/96) Accurately ripped
5 | (96/96) Accurately ripped
6 | (95/96) Accurately ripped
7 | (94/96) Accurately ripped
8 | (94/96) Accurately ripped
9 | (96/96) Accurately ripped
10 | (96/96) Accurately ripped
11 | (94/96) Accurately ripped
12 | (95/96) Accurately ripped
13 | (96/96) Accurately ripped
14 | (96/96) Accurately ripped
15 | (94/96) Accurately ripped
[AccurateRip ID: 0015f17a-01019a84-dc0ad80f] found.
Track [ CRC | V2 ] Status
01 [8f0befcb|3a374990] (047+055/102) Accurately ripped
02 [b45e5765|0d1fd77f] (046+055/101) Accurately ripped
03 [ff212d3a|61d119d9] (045+056/101) Accurately ripped
04 [66793a7b|e8f436d8] (045+055/100) Accurately ripped
05 [7f3c0ef7|bef16307] (046+055/101) Accurately ripped
06 [36a1bd9e|de0d072f] (046+055/101) Accurately ripped
07 [bb8b9a1e|59959e08] (045+055/100) Accurately ripped
08 [9e4295c5|a979bc3f] (045+055/100) Accurately ripped
09 [a57f06a8|245c4e98] (046+054/100) Accurately ripped
10 [8e2041b6|ac8dda30] (046+055/101) Accurately ripped
11 [0ec09404|b2e3ad41] (047+055/102) Accurately ripped
12 [434796bb|21b8501c] (047+055/102) Accurately ripped
13 [1eda4981|ee7ec0e3] (046+055/101) Accurately ripped
14 [a98307b0|971c2ed5] (047+055/102) Accurately ripped
15 [46693f60|565f1201] (045+051/096) Accurately ripped

Track Peak [ CRC32 ] [W/O NULL] [ LOG ]
– 98,8 [183AAD86] [73D3CD2C] CRC32
01 97,7 [E6F55212] [1166B90B]
02 97,7 [E2C87CA9] [061BA882]
03 97,7 [9DB4EE12] [9ED454A0]
04 97,7 [64A830F4] [2EDD205B]
05 97,7 [2FAE9863] [998E608A]
06 98,8 [7087D51B] [3D0183F3]
07 97,7 [594802AC] [4B97BBCC]
08 97,7 [EE02EA68] [54A35F8E]
09 97,7 [E15DF6F9] [9D8404B1]
10 97,7 [CBFAFD0A] [6590B2EF]
11 70,7 [3895D9A4] [E5C4C7F4]
12 98,8 [F42FC60F] [100909FA]
13 97,7 [1E87F125] [747E05E7]
14 96,6 [F5F3D3B4] [D7BCA7BE]
15 96,6 [5C8B34B2] [D0E3F87E]


VA - Across The Universe: Music From The Motion Picture (2007) [2CD, Deluxe Edition] Repost

Tracklist CD2:

01. I Am The Walrus (Bono And Secret Machines) 4:47
02. Being For The Benefit Of Mr. Kite (Eddie Izzard) 2:43
03. Because (Evan Rachel Wood, Jim Sturgess, Joe Anderson, Dana Fuchs, T.V. Carpio And Martin Luther McCoy) 2:32
04. Something (Jim Sturgess) 3:02
05. Oh! Darling (Dana Fuchs And Martin Luther McCoy) 2:30
06. Strawberry Fields Forever (Jim Sturgess And Joe Anderson) 3:39
07. Revolution (Jim Sturgess) 2:18
08. While My Guitar Gently Weeps (Martin Luther McCoy) 4:02
09. Across The Universe (Jim Sturgess) 3:29
10. Helter Skelter (Dana Fuchs) 3:42
11. Happiness Is A Warm Gun (Joe Anderson Feat. Salma Hayek) 3:10
12. Blackbird (Evan Rachel Wood) 3:06
13. Hey Jude (Joe Anderson) 4:12
14. Don't Let Me Down (Dana Fuchs) 3:08
15. All You Need Is Love (Jim Sturgess And Dana Fuchs) 3:22
16. Lucy In The Sky With Diamonds (Bono) 4:24

Exact Audio Copy V1.3 from 2. September 2016

EAC extraction logfile from 7. August 2018, 18:59

Various Artists / Across The Universe (Disc 2) (0602517469501)

Used drive : ASUS DRW-24D5MT Adapter: 1 ID: 0

Read mode : Secure
Utilize accurate stream : Yes
Defeat audio cache : Yes
Make use of C2 pointers : No

Read offset correction : 6
Overread into Lead-In and Lead-Out : No
Fill up missing offset samples with silence : Yes
Delete leading and trailing silent blocks : No
Null samples used in CRC calculations : Yes
Used interface : Native Win32 interface for Win NT & 2000

Used output format : User Defined Encoder
Selected bitrate : 768 kBit/s
Quality : High
Add ID3 tag : No
Command line compressor : C:\Program Files (x86)\Exact Audio Copy\Flac\flac.exe
Additional command line options : -V -8 -T "Genre=%genre%" -T "Artist=%artist%" -T "Title=%title%" -T "Album=%albumtitle%" -T "Date=%year%" -T "Tracknumber=%tracknr%" -T "Comment=%comment%" %source%


TOC of the extracted CD

Track | Start | Length | Start sector | End sector
––––––––––––––––––––––––––––-
1 | 0:00.00 | 4:47.26 | 0 | 21550
2 | 4:47.26 | 2:42.69 | 21551 | 33769
3 | 7:30.20 | 2:32.19 | 33770 | 45188
4 | 10:02.39 | 3:02.15 | 45189 | 58853
5 | 13:04.54 | 2:29.62 | 58854 | 70090
6 | 15:34.41 | 3:38.42 | 70091 | 86482
7 | 19:13.08 | 2:18.02 | 86483 | 96834
8 | 21:31.10 | 4:02.02 | 96835 | 114986
9 | 25:33.12 | 3:29.03 | 114987 | 130664
10 | 29:02.15 | 3:41.71 | 130665 | 147310
11 | 32:44.11 | 3:10.34 | 147311 | 161594
12 | 35:54.45 | 3:06.19 | 161595 | 175563
13 | 39:00.64 | 4:12.04 | 175564 | 194467
14 | 43:12.68 | 3:07.53 | 194468 | 208545
15 | 46:20.46 | 3:21.61 | 208546 | 223681
16 | 49:42.32 | 4:23.52 | 223682 | 243458


Range status and errors

Selected range

Filename H:\dafnaplus\VA - Across The Universe\Disc 2\Various Artists - Across The Universe (Disc 2) (0602517469501).wav

Peak level 98.8 %
Extraction speed 6.7 X
Range quality 100.0 %
Test CRC D7F81C63
Copy CRC D7F81C63
Copy OK

No errors occurred


AccurateRip summary

Track 1 accurately ripped (confidence 108) [C9C49A25] (AR v2)
Track 2 accurately ripped (confidence 111) [7BC84CCC] (AR v2)
Track 3 accurately ripped (confidence 111) [8AEA6F98] (AR v2)
Track 4 accurately ripped (confidence 111) [124E9C8B] (AR v2)
Track 5 accurately ripped (confidence 110) [A4AB7D3C] (AR v2)
Track 6 accurately ripped (confidence 111) [9242CB0D] (AR v2)
Track 7 accurately ripped (confidence 111) [9F073F6C] (AR v2)
Track 8 accurately ripped (confidence 109) [7963749E] (AR v2)
Track 9 accurately ripped (confidence 111) [1ADC00CD] (AR v2)
Track 10 accurately ripped (confidence 109) [62A082FE] (AR v2)
Track 11 accurately ripped (confidence 108) [333DBA74] (AR v2)
Track 12 accurately ripped (confidence 111) [B1D8943D] (AR v2)
Track 13 accurately ripped (confidence 108) [8289B1DE] (AR v2)
Track 14 accurately ripped (confidence 109) [B76B4058] (AR v2)
Track 15 accurately ripped (confidence 108) [5D611D41] (AR v2)
Track 16 accurately ripped (confidence 107) [3D178F7A] (AR v2)

All tracks accurately ripped

End of status report

–– CUETools DB Plugin V2.1.6

[CTDB TOCID: pN39T_MOED0vP7BjhHljGr.FO4o-] found
Submit result: pN39T_MOED0vP7BjhHljGr.FO4o- has been confirmed
Track | CTDB Status
1 | (187/188) Accurately ripped
2 | (187/188) Accurately ripped
3 | (186/188) Accurately ripped
4 | (186/188) Accurately ripped
5 | (187/188) Accurately ripped
6 | (185/188) Accurately ripped
7 | (187/188) Accurately ripped
8 | (186/188) Accurately ripped
9 | (187/188) Accurately ripped
10 | (184/188) Accurately ripped
11 | (186/188) Accurately ripped
12 | (186/188) Accurately ripped
13 | (186/188) Accurately ripped
14 | (186/188) Accurately ripped
15 | (182/188) Accurately ripped
16 | (185/188) Accurately ripped


==== Log checksum 537F57677E657E439064414246AED6B9609BC7A0DF7B16B15ECCC9E5281B4383 ====


[CUETools log; Date: 09.08.2018 8:56:14; Version: 2.1.5]
[CTDB TOCID: pN39T_MOED0vP7BjhHljGr.FO4o-] found.
Track | CTDB Status
1 | (189/190) Accurately ripped
2 | (189/190) Accurately ripped
3 | (188/190) Accurately ripped
4 | (188/190) Accurately ripped
5 | (189/190) Accurately ripped
6 | (187/190) Accurately ripped
7 | (189/190) Accurately ripped
8 | (188/190) Accurately ripped
9 | (189/190) Accurately ripped
10 | (186/190) Accurately ripped
11 | (188/190) Accurately ripped
12 | (188/190) Accurately ripped
13 | (188/190) Accurately ripped
14 | (188/190) Accurately ripped
15 | (184/190) Accurately ripped
16 | (187/190) Accurately ripped
[AccurateRip ID: 001eb77a-0170d599-f70cae10] found.
Track [ CRC | V2 ] Status
01 [7b43ccae|c9c49a25] (103+108/211) Accurately ripped
02 [9e37d02d|7bc84ccc] (103+111/214) Accurately ripped
03 [6f17dc6c|8aea6f98] (102+111/213) Accurately ripped
04 [491a86f4|124e9c8b] (102+111/213) Accurately ripped
05 [f73856a1|a4ab7d3c] (103+110/213) Accurately ripped
06 [8d3b6f16|9242cb0d] (102+111/213) Accurately ripped
07 [27e03953|9f073f6c] (101+111/212) Accurately ripped
08 [760e0d08|7963749e] (101+109/210) Accurately ripped
09 [b0120a75|1adc00cd] (101+111/212) Accurately ripped
10 [26ce56dd|62a082fe] (102+109/211) Accurately ripped
11 [c0d55dd4|333dba74] (102+108/210) Accurately ripped
12 [4d3e740d|b1d8943d] (101+111/212) Accurately ripped
13 [10ec1c79|8289b1de] (102+108/210) Accurately ripped
14 [b4b1c105|b76b4058] (101+109/210) Accurately ripped
15 [4a15a52e|5d611d41] (101+108/209) Accurately ripped
16 [04b68ce1|3d178f7a] (099+107/206) Accurately ripped
Offsetted by 6:
01 [b374ed0d] (000/211) No match
02 [e5d531ea] (000/214) No match
03 [543086a1] (000/213) No match
04 [f4bbf486] (000/213) No match
05 [be6167ff] (000/213) No match
06 [4090e450] (000/213) No match
07 [e767c04f] (000/212) No match (V2 was not tested)
08 [7cc73236] (000/210) No match
09 [860d6361] (000/212) No match
10 [9299369d] (000/211) No match
11 [492027ce] (000/210) No match
12 [4c65fb83] (000/212) No match
13 [df88c9a1] (000/210) No match
14 [c2112069] (000/210) No match
15 [b03ce885] (000/209) No match
16 [1fb99abf] (000/206) No match

Track Peak [ CRC32 ] [W/O NULL] [ LOG ]
– 98,8 [D7F81C63] [253B4DB5] CRC32
01 98,8 [8A4B1C69] [664A900F]
02 97,7 [190B1BB6] [A315F1FC]
03 97,7 [3253BB5E] [4E812A19]
04 97,7 [6685F33B] [4254D74C]
05 98,8 [0B671350] [F9DC10D4]
06 97,7 [56EF62AD] [FECC47F1]
07 97,7 [2D7588E1] [DBC8BAD0]
08 92,2 [902F5347] [5564A9DF]
09 98,8 [89CF9732] [B15326BD]
10 97,7 [F5BA1298] [0E3CB766]
11 97,7 [70EC44FB] [1B8984E0]
12 70,7 [0AA668D9] [7D936937]
13 92,2 [BABCC931] [66D3DF09]
14 97,7 [DD9BB71F] [99A7D13E]
15 98,8 [B5FF37C2] [E38D451E]
16 97,7 [A9F312C0] [BAF59037]


VA - Across The Universe: Music From The Motion Picture (2007) [2CD, Deluxe Edition] Repost

All thanks go to dafnaplus

Download VA - Across The Universe: Music From The Motion Picture (2007):