Tags
Language
Tags
October 2022
Su Mo Tu We Th Fr Sa
25 26 27 28 29 30 1
2 3 4 5 6 7 8
9 10 11 12 13 14 15
16 17 18 19 20 21 22
23 24 25 26 27 28 29
30 31 1 2 3 4 5

Angela Hewitt - Beethoven: Piano Sonatas Op. 22, Op. 31 No. 3, Op. 101 (2013) (Repost)

Posted By: tirexiss
Angela Hewitt - Beethoven: Piano Sonatas Op. 22, Op. 31 No. 3, Op. 101 (2013) (Repost)

Angela Hewitt - Beethoven: Piano Sonatas Op. 22, Op. 31 No. 3, Op. 101 (2013)
EAC | FLAC (image+.cue, log) | Covers Included | 72:29 | 233 MB
Genre: Classical | Label: Hyperion| Catalog: CDA67974

Angela Hewitt presents a fourth volume in her acclaimed series of Beethoven’s piano sonatas, which has delighted her fans worldwide.
The little-known Sonata in B flat major, Op 22, the last of Beethoven’s ‘early’ sonatas, is recorded alongside Op 31 No 3 (sometimes known as ‘La chasse’, or ‘The Hunt’, because of its tumultuous Presto con fuoco finale). The album is concluded with Op 101, of which the journalist for the Allgemeine musikalische Zeitung in Leipzig wrote: ‘Truly, here in his 101st composition admiration and renewed respect take hold of us, when we wander along strange, never trodden paths with the great painter of the soul’, going on to enthuse about the most beautiful colours and pictures in Beethoven’s new Piano Sonata.

Angela Hewitt - Beethoven: Piano Sonatas Op. 22, Op. 31 No. 3, Op. 101 (2013) (Repost)

Track List:

[1]-[4] Piano Sonata No.11 in B flat major, Op.22
[5]-[8] Piano Sonata No.18 in E flat major, Op.31 No.3
[9]-[12] Piano Sonata No.28 in A major, Op.101

Performers:
Angela Hewitt, piano

Exact Audio Copy V1.1 from 23. June 2015

EAC extraction logfile from 5. October 2015, 1:01

Angela Hewitt / Beethoven - Piano Sonatas Op.22, Op.31 No.3, Op.101

Used drive : HL-DT-STDVDRAM GU70N Adapter: 1 ID: 0

Read mode : Secure
Utilize accurate stream : Yes
Defeat audio cache : Yes
Make use of C2 pointers : No

Read offset correction : 48
Overread into Lead-In and Lead-Out : No
Fill up missing offset samples with silence : Yes
Delete leading and trailing silent blocks : No
Null samples used in CRC calculations : Yes
Used interface : Native Win32 interface for Win NT & 2000

Used output format : User Defined Encoder
Selected bitrate : 128 kBit/s
Quality : High
Add ID3 tag : No
Command line compressor : C:\Program Files (x86)\Exact Audio Copy\Flac\flac.exe
Additional command line options : -V -8 -T "Date=%year%" -T "Genre=%genre%" %source%


TOC of the extracted CD

Track | Start | Length | Start sector | End sector
––––––––––––––––––––––––––––-
1 | 0:00.00 | 8:05.01 | 0 | 36375
2 | 8:05.01 | 8:26.54 | 36376 | 74379
3 | 16:31.55 | 3:28.52 | 74380 | 90031
4 | 20:00.32 | 6:40.39 | 90032 | 120070
5 | 26:40.71 | 8:54.01 | 120071 | 160121
6 | 35:34.72 | 5:17.36 | 160122 | 183932
7 | 40:52.33 | 4:08.42 | 183933 | 202574
8 | 45:01.00 | 4:53.56 | 202575 | 224605
9 | 49:54.56 | 4:31.08 | 224606 | 244938
10 | 54:25.64 | 6:30.03 | 244939 | 274191
11 | 60:55.67 | 3:19.23 | 274192 | 289139
12 | 64:15.15 | 8:11.72 | 289140 | 326036


Range status and errors

Selected range

Filename C:\temp\CDA67974 - Beethoven - Piano Sonatas Op.22, Op.31 No.3, Op.101\Beethoven - Piano Sonatas Op.22, Op.31 No.3, Op.101.wav

Peak level 91.2 %
Extraction speed 2.1 X
Range quality 100.0 %
Test CRC 7DF56B93
Copy CRC 7DF56B93
Copy OK

No errors occurred


AccurateRip summary

Track 1 accurately ripped (confidence 2) [BEBA6F19] (AR v2)
Track 2 accurately ripped (confidence 2) [70608957] (AR v2)
Track 3 accurately ripped (confidence 2) [AC5C4AE0] (AR v2)
Track 4 accurately ripped (confidence 2) [D2AC5B3E] (AR v2)
Track 5 accurately ripped (confidence 2) [8B2263C8] (AR v2)
Track 6 accurately ripped (confidence 2) [268CC8C8] (AR v2)
Track 7 accurately ripped (confidence 2) [284BEE0B] (AR v2)
Track 8 accurately ripped (confidence 2) [F2EDE935] (AR v2)
Track 9 accurately ripped (confidence 2) [EA6511F1] (AR v2)
Track 10 accurately ripped (confidence 2) [C0DC5E92] (AR v2)
Track 11 accurately ripped (confidence 2) [7F0CCEB6] (AR v2)
Track 12 accurately ripped (confidence 2) [B85E1846] (AR v2)

All tracks accurately ripped

End of status report

==== Log checksum DE3DEEF96AF1BDA490718231382943180AF400F452A32F1EFAD6ED366224B4CF ====

Thanks to the Original ripper (A-Z)!

Download: