Tags
Language
Tags
March 2024
Su Mo Tu We Th Fr Sa
25 26 27 28 29 1 2
3 4 5 6 7 8 9
10 11 12 13 14 15 16
17 18 19 20 21 22 23
24 25 26 27 28 29 30
31 1 2 3 4 5 6

Architects of Existence - Three Deep Breaths (2020) [Official Digital Download 24/96]

Posted By: delpotro
Architects of Existence - Three Deep Breaths (2020) [Official Digital Download 24/96]

Architects of Existence - Three Deep Breaths (2020)
FLAC (tracks) 24-bit/96 kHz | Front Cover | Time - 74:29 minutes | 1,28 GB
Electronic, Ambient | Label: Carpe Sonum Records, Official Digital Download

Mick Chillage and Eric “The” Taylor, better known to the ambient cognoscenti as Architects of Existence, return with a follow-up to their earlier self-titled Carpe Sonum debut, and it’s a dandy. Neither artist’s been resting on his laurels these past three years, but whatever spirits they’ve imbibed since has had a pretty dramatic effect on their respective gray matter. To wit, they’ve brought to bear on this superb follow-up a near-telepathic line of communication that has yielded one of this years' most compelling opuses. Imagine taking a literal plunge into the clicking synapses, irising filters, snapping envelopes, and charging whips of electricity at the core of the duo’s gear, audiovisually mapping the results, and pushing the molecules of air outward to yield the mighty textures leaping forth. Does the word ‘epic’ come to mind? These two Architects have crafted a Fax-like artifact for the ages, full of mammoth synths that carve out great chunks of sky and leave the listener riveted in mindstates awash in awe. From the near-symphonic brushstrokes of “Pulling”, which takes on an Michel Huygen/Neuronium-like grandeur, to the pearlescent sequencer patterns adorning “A Trickled Tear”, this dynamic duo effortlessly trips the light fantastic.

Tracklist:
1. A Ghostly Appearance (21:43)
2. A Trickled Tear (18:59)
3. Pulling (16:30)
4. Three Deep Breaths (17:17)

foobar2000 1.6.6 / Dynamic Range Meter 1.1.1
log date: 2021-07-23 09:34:48

––––––––––––––––––––––––––––––––––––––––
Analyzed: Architects of Existence / Three Deep Breaths
––––––––––––––––––––––––––––––––––––––––

DR Peak RMS Duration Track
––––––––––––––––––––––––––––––––––––––––
DR11 -1.64 dB -16.72 dB 21:43 01-A Ghostly Appearance
DR11 -3.04 dB -17.35 dB 18:59 02-A Trickled Tear
DR10 -1.66 dB -15.99 dB 16:30 03-Pulling
DR10 -0.69 dB -12.65 dB 17:17 04-Three Deep Breaths
––––––––––––––––––––––––––––––––––––––––

Number of tracks: 4
Official DR value: DR11

Samplerate: 96000 Hz
Channels: 2
Bits per sample: 24
Bitrate: 2456 kbps
Codec: FLAC
================================================================================


Thanks to the Original customer!