Tags
Language
Tags

Edward Simon - Daisy (2022) [Official Digital Download 24/96]

Posted By: pyatak
Edward Simon - Daisy (2022) [Official Digital Download 24/96]

Edward Simon - Daisy (2022) [Official Digital Download 24/96]
FLAC (tracks) 24-bit/96 kHz | Front Cover | Time - 69:33 minutes | 1,12 GB
Jazz | Label: Gwylbutzd, Official Digital Download

Venezuelan-born pianist and composer Edward Simon is an artist of great singularity steeped in many musical traditions. He grew up in a musical family playing Latin American music and was classically trained in the US since age 12; both streams inform his primary métier, jazz improvisation.

TRACKLIST

1. Edward Simon - Inception
2. Edward Simon - Dawn
3. Art Lande - Keen Mind
4. Edward Simon - Groove ll
5. Art Lande - 3 Briefs
6. Edward Simon - Groove l
7. Edward Simon - Nostalgia
8. Art Lande - We Wed
9. Edward Simon - Evolution
10. Edward Simon - Formality Lost
11. Edward Simon - Circle Cycle
12. Edward Simon - La gloria eres tu
13. Art Lande - Capiche
14. Edward Simon - Contigo en la distancia
15. Art Lande - Roger
16. Edward Simon - Transitions
17. Edward Simon - Transformation
18. Edward Simon - Daisy

foobar2000 1.6.2 / Dynamic Range Meter 1.1.1
log date: 2022-02-12 17:31:32

––––––––––––––––––––––––––––––––––––––––
Analyzed: Art Lande / Daisy (1-5)
Edward Simon / Daisy (6-18)
––––––––––––––––––––––––––––––––––––––––

DR Peak RMS Duration Track
––––––––––––––––––––––––––––––––––––––––
DR11 -0.32 dB -14.40 dB 4:40 03-Keen Mind
DR13 -0.32 dB -18.55 dB 5:38 05-3 Briefs
DR14 -0.57 dB -17.14 dB 4:39 08-We Wed
DR11 -0.33 dB -13.72 dB 5:09 13-Capiche
DR11 -0.32 dB -13.26 dB 4:12 15-Roger
DR10 -0.32 dB -15.78 dB 0:51 01-Inception
DR13 -0.76 dB -18.89 dB 3:55 02-Dawn
DR13 -1.94 dB -17.72 dB 3:08 04-Groove ll
DR13 -0.32 dB -16.19 dB 2:31 06-Groove l
DR12 -1.39 dB -16.37 dB 4:55 07-Nostalgia
DR13 -0.32 dB -16.77 dB 6:41 09-Evolution
DR13 -0.32 dB -17.93 dB 2:36 10-Formality Lost
DR14 -0.32 dB -18.57 dB 2:26 11-Circle Cycle
DR12 -0.32 dB -15.40 dB 6:12 12-La gloria eres tu
DR12 -0.76 dB -15.29 dB 5:07 14-Contigo en la distancia
DR11 -1.78 dB -15.19 dB 4:00 16-Transitions
DR10 -0.71 dB -16.24 dB 0:36 17-Transformation
DR15 -0.32 dB -22.16 dB 2:19 18-Daisy
––––––––––––––––––––––––––––––––––––––––

Number of tracks: 18
Official DR value: DR12

Samplerate: 96000 Hz
Channels: 2
Bits per sample: 24
Bitrate: 2194 kbps
Codec: FLAC
================================================================================



Thanks to the Original customer.