Tags
Language
Tags

Popular Woodworking Magazine - ShopClass: SketchUp for Woodworkers Part I & II Video

Posted By: ParRus
Popular Woodworking Magazine - ShopClass: SketchUp for Woodworkers Part I & II Video

Popular Woodworking Magazine - ShopClass: SketchUp for Woodworkers Part I & II Video
Flash Video | English | MOV | 1280 x 720 | AVC ~538 kbps | 25.000 fps
AAC | 62.8 kbps | 48.0 KHz | 2 channels | 4 hour | 1.11 GB
Genre: eLearning / 3D modeling, Google Sketchup, Woodworking, Constructing

SketchUp for Woodworkers Part 1: Getting Started. This ShopClass is comprised of our series of 12 lessons in the basics of using SketchUp (a free 3D-modeling program from Google). These video lessons take you step by step from setting up the software to gathering information from your finished model. So you'll head to the shop with all the information you need to build any project with confidence. You'll know the exact sizes of every part, and how the parts go together – before you ever cut any wood!
Includes:
• 2 Hours of Expert 3D Computer Modeling Instruction
• Learn at Your Own Pace
• Build on Screen Before You Head to the Shop
• Learn the Basics of Google SketchUp
• Master the Skills You Need
• Techniques for Quick Designs
• Set Up SketchUp for Efficiency & Accuracy

ShopClass Sketchup: Part 2 shows you how to quickly and easily resize even the most complex plans. The video lessons from this download build on the skills learned in ShopClass Part One. You'll learn the magic of copying instead of drawing and the art of making changes. You'll be able to print detailed parts lists and full-sized templates. You'll know the exact sizes of every part and how the parts go together — even before you cut the wood! Add accurate details such as dovetails, raised panels and cope-and-stick-joints to your projects.
About the Presenter:
Robert W. Lang is the executive editor of Popular Woodworking Magazine and the author of several books on furniture styles and design. With more than 30 years experience designing and building furniture and in CAD and computer illustration, Bob brings a practical style to teaching 3D modeling with Google
SketchUp.

author: Robert W. Lang
country: usa

also You can watch my other helpful: Woodworking-posts
(if old file-links don't show activity, try copy-paste them to the address bar)

General
Complete name : SketchUp-Started_8-10.mov
Format : MPEG-4
Format profile : QuickTime
Codec ID : qt
File size : 160 MiB
Duration : 36mn 56s
Overall bit rate : 606 Kbps
Encoded date : UTC 2010-03-11 20:25:36
Tagged date : UTC 2010-03-11 20:25:47
Writing library : Apple QuickTime
Video #2
ID : 2
Format : AVC
Format/Info : Advanced Video Codec
Format profile : Main@L3.1
Format settings, CABAC : No
Format settings, ReFrames : 2 frames
Codec ID : avc1
Codec ID/Info : Advanced Video Coding
Duration : 36mn 56s
Bit rate mode : Variable
Bit rate : 538 Kbps
Width : 1 280 pixels
Height : 720 pixels
Display aspect ratio : 16:9
Frame rate mode : Constant
Frame rate : 25.000 fps
Resolution : 24 bits
Colorimetry : 4:2:0
Scan type : Progressive
Bits/(Pixel*Frame) : 0.023
Stream size : 142 MiB (89%)
Encoded date : UTC 2010-03-11 20:24:27
Tagged date : UTC 2010-03-11 20:25:47
colour_primaries : BT.709-5, BT.1361, IEC 61966-2-4, SMPTE RP177
transfer_characteristics : BT.709-5, BT.1361
matrix_coefficients : BT.709-5, BT.1361, IEC 61966-2-4 709, SMPTE RP177
Audio #1
ID : 1
Format : AAC
Format/Info : Advanced Audio Codec
Format version : Version 4
Format profile : LC
Format settings, SBR : No
Format settings, PS : Yes
Codec ID : 40
Duration : 36mn 56s
Bit rate mode : Constant
Bit rate : 62.8 Kbps
Nominal bit rate : 64.0 Kbps
Channel(s) : 2 channels
Channel positions : Front: L R
Sampling rate : 48.0 KHz
Resolution : 16 bits
Stream size : 16.6 MiB (10%)
Encoded date : UTC 2010-03-11 20:24:27
Tagged date : UTC 2010-03-11 20:25:47

Full ScreenShots

Popular Woodworking Magazine - ShopClass: SketchUp for Woodworkers Part I & II Video

Popular Woodworking Magazine - ShopClass: SketchUp for Woodworkers Part I & II Video

Popular Woodworking Magazine - ShopClass: SketchUp for Woodworkers Part I & II Video

Popular Woodworking Magazine - ShopClass: SketchUp for Woodworkers Part I & II Video

Popular Woodworking Magazine - ShopClass: SketchUp for Woodworkers Part I & II Video

✅ Exclusive eLearning Videos ParRus-blogadd to bookmarks

Feel free to contact me PM
when links are dead or want any repost

Popular Woodworking Magazine - ShopClass: SketchUp for Woodworkers Part I & II Video