Subcategories
Tags
Language
Tags

creativeLIVE - Posing and Lighting with Bambi Cantrell

Posted By: ParRus
creativeLIVE - Posing and Lighting with Bambi Cantrell

creativeLIVE - Posing and Lighting with Bambi Cantrell
WEBRip | MOV | English | 1280 x 720 | AVC ~1839 kbps | 23.976 fps
AAC | 107 Kbps | 48.0 KHz | 2 channels | 17:12:07 | 14.05 GB
Genre: Video Tutorial / Photographing

Join Bambi Cantrell for an intimate three day workshop focusing on posing and lighting techniques with a focus on wedding, boudoir, and portrait photography. This is shaping up to be one of the most popular subjects we've hosted. Thousands of photographers from around the world are enrolled for this weekend, and we've seen a tremendous amount of interest online for both Bambi and the topic of posing and light.
Content:

Session 1

10:00 AM - Posing and Lighting Overview
12:00 PM - Shooting Boudoir with Natural Light
1:00 PM - Posing and Lighting a Bride & Groom
2:30 PM - More Posing with Natural Light
4:00 PM - Critiques on Student Work
4:45 PM - Q&A
SPECIAL: If You Can Afford Yourself, You're Too Cheap!

Session 2

10:00 AM - More on Posing and Lighting
11:45 AM - Posing Boudoir with Hot Lights
1:15 PM - Group Posing
2:15 PM - Critique
3:30 PM - Q&A
SPECIAL: Starting Out and Charging What You're Worth.

Session 3

WELCOME: Bambi Is on Fire!
10:00 AM - Using Unique Textures, Locations & Backgrounds
11:45 AM - Posing a Model in the Bathroom and the Studio
12:15 PM - Posing a Mature Woman
1:30 PM - Faces, Shapes, and the Higher Camera Angle
2:15 PM - Retouching Images in Photoshop
2:45 PM - Image Critiques
4:15 PM - Posing a Body Painted Model with Hot Lights

also You can look my other last: Photography-posts

General
Complete name : cL-1103-BAM-D1S3-Bride_and_Groom-HD.mov
Format : MPEG-4
Format profile : QuickTime
Codec ID : qt
File size : 881 MiB
Duration : 1h 3mn
Overall bit rate mode : Variable
Overall bit rate : 1 951 Kbps
Encoded date : UTC 2011-03-19 13:12:46
Tagged date : UTC 2011-03-19 13:13:09
Writing library : Apple QuickTime

Video
ID : 1
Format : AVC
Format/Info : Advanced Video Codec
Format profile : Main@L3.1
Format settings, CABAC : Yes
Format settings, ReFrames : 4 frames
Codec ID : avc1
Codec ID/Info : Advanced Video Coding
Duration : 1h 3mn
Bit rate mode : Variable
Bit rate : 1 839 Kbps
Maximum bit rate : 4 195 Kbps
Width : 1 280 pixels
Clean aperture width : 1 248 pixels
Height : 720 pixels
Clean aperture height : 702 pixels
Display aspect ratio : 16:9
Clean aperture display aspe : 16:9
Frame rate mode : Constant
Frame rate : 23.976 fps
Color space : YUV
Chroma subsampling : 4:2:0
Bit depth : 8 bits
Scan type : Progressive
Bits/(Pixel*Frame) : 0.083
Stream size : 830 MiB (94%)
Language : English
Encoded date : UTC 2011-03-19 12:05:24
Tagged date : UTC 2011-03-19 13:13:09
Color range : Limited
Color primaries : BT.709
Transfer characteristics : BT.709
Matrix coefficients : BT.709

Audio
ID : 2
Format : AAC
Format/Info : Advanced Audio Codec
Format profile : LC
Codec ID : 40
Duration : 1h 3mn
Source duration : 1h 3mn
Bit rate mode : Constant
Bit rate : 107 Kbps
Nominal bit rate : 128 Kbps
Channel(s) : 2 channels
Channel positions : Front: L R
Sampling rate : 48.0 KHz
Compression mode : Lossy
Stream size : 48.2 MiB (5%)
Source stream size : 48.2 MiB (5%)
Language : English
Encoded date : UTC 2011-03-19 12:05:24
Tagged date : UTC 2011-03-19 13:13:09

Screenshots

creativeLIVE - Posing and Lighting with Bambi Cantrell

creativeLIVE - Posing and Lighting with Bambi Cantrell

creativeLIVE - Posing and Lighting with Bambi Cantrell

creativeLIVE - Posing and Lighting with Bambi Cantrell

creativeLIVE - Posing and Lighting with Bambi Cantrell

Exclusive eLearning Videos ParRus-blogadd to bookmarks

Feel free to contact me PM
when links are dead or want any repost

creativeLIVE - Posing and Lighting with Bambi Cantrell