Tags
Language
Tags
June 2024
Su Mo Tu We Th Fr Sa
26 27 28 29 30 31 1
2 3 4 5 6 7 8
9 10 11 12 13 14 15
16 17 18 19 20 21 22
23 24 25 26 27 28 29
30 1 2 3 4 5 6

Joe Farnsworth - In What Direction Are You Headed? (2023) [Official Digital Download 24/96]

Posted By: delpotro
Joe Farnsworth - In What Direction Are You Headed? (2023) [Official Digital Download 24/96]

Joe Farnsworth - In What Direction Are You Headed? (2023)
FLAC (tracks) 24-bit/96 kHz | Front Cover | Time - 61:53 minutes | 1,33 GB
Contemporary Jazz, Post-Bop | Label: Smoke Sessions Records, Official Digital Download

Drummer Joe Farnsworth sets out on a bold new path in answer to the question IN WHAT DIRECTION ARE YOU HEADED? and features a stellar all-star quintet with guitarist Kurt Rosenwinkel, saxophonist Immanuel Wilkins, pianist Julius Rodriguez, and bassist Robert Hurst.

IN WHAT DIRECTION ARE YOU HEADED? marks a turning point in Farnsworth’s career, as he’s assembled a new quintet featuring not his renowned forebears but esteemed talents from his own generation and a younger, rising class. While he has honed his estimable skills behind the kit through decades of work with some of jazz’s greatest elders – iconic names like McCoy Tyner, Pharoah Sanders, Harold Mabern, Horace Silver, Benny Golson, Cedar Walton, Barry Harris, Curtis Fuller, George Coleman, Johnny Griffin, Lou Donaldson, Cecil Payne, Kenny Barron, and others, in recent years, he’s seen many of his mentors pass away.

“I’ve spent my whole life trying to play with great musicians like Cedar Walton and George Coleman and Harold Mabern, and I have been very fortunate to achieve those goals,” Farnsworth says. “Meanwhile, there are all these guys my age and younger players doing a whole new thing. It’s time for me to take the lessons I’ve learned from those elders and develop my own thing.”

The title track "In What Direction Are You Headed?" provides not only a mission statement for the album but also a bridge between past and future. The bold, determined Harold Mabern composition maintains Farnsworth’s ties to his past while pointing him in a new direction forward. “I knew I had all these great players who would take me to a different place,” he continues. “But the liftoff pad was going to be Harold Mabern, so I knew everything was going to be okay.”

Tracklist:
01. Terra Nova
02. Filters
03. In What Direction Are You Headed
04. Composition 4
05. Anyone but You
06. Safe Corners
07. Bobby No Bags
08. Someday We'll All Be Free

foobar2000 1.4.1 / Dynamic Range Meter 1.1.1
log date: 2023-05-16 14:06:34

––––––––––––––––––––––––––––––––––––––––
Analyzed: Joe Farnsworth / In What Direction Are You Headed?
––––––––––––––––––––––––––––––––––––––––

DR Peak RMS Duration Track
––––––––––––––––––––––––––––––––––––––––
DR11 -1.84 dB -14.95 dB 7:14 01-Terra Nova
DR9 -3.04 dB -13.76 dB 9:29 02-Filters
DR9 -3.04 dB -14.17 dB 10:33 03-In What Direction Are You Headed
DR11 -1.84 dB -16.31 dB 5:01 04-Composition 4
DR10 -2.54 dB -14.41 dB 7:24 05-Anyone but You
DR11 -1.84 dB -14.68 dB 6:44 06-Safe Corners
DR11 -1.84 dB -15.37 dB 5:32 07-Bobby No Bags
DR8 -1.84 dB -12.85 dB 9:56 08-Someday We'll All Be Free
––––––––––––––––––––––––––––––––––––––––

Number of tracks: 8
Official DR value: DR10

Samplerate: 96000 Hz
Channels: 2
Bits per sample: 24
Bitrate: 3056 kbps
Codec: FLAC
================================================================================


Thanks to the Original customer!