Tags
Language
Tags
July 2024
Su Mo Tu We Th Fr Sa
30 1 2 3 4 5 6
7 8 9 10 11 12 13
14 15 16 17 18 19 20
21 22 23 24 25 26 27
28 29 30 31 1 2 3

Two Steps From Hell - Live - An Epic Music Experience (2022) [Official Digital Download]

Posted By: pyatak
Two Steps From Hell - Live - An Epic Music Experience (2022) [Official Digital Download]

Two Steps From Hell - Live - An Epic Music Experience (2022) [Official Digital Download]
FLAC (tracks) 24-bit/48 kHz | Front Cover | Time - 02:03:29 minutes | 1,53 GB
Classical Crossover | Studio Master, Official Digital Download

Live - An Epic Music Experience is an upcoming Two Steps from Hell album, scheduled to be released November 4th, 2022 as both a digital album and a physical album on CD and vinyl. It will feature the live recordings of tracks played by the group on their 2022 European tour.

A couple of singles were released ahead of the album: the first one on September 9th, 2022, one featuring the live version of Flight of the Silverbird, the second one on the 23rd of the same month, featuring a live version of Protectors of the Earth, the third one on October 7th, featuring the live version of Fire Nation and the fourth one, from the 21st October, featured the live version of Wings for Ukraine.

TRACKLIST

Disc: 1
1 Empire of Angels - Live - Two Steps From Hell / Bergersen, Thomas
2 Cannon in D Minor - Live - Two Steps From Hell / Bergersen, Thomas
3 After the Fall - Live - Two Steps From Hell / Phoenix, Nick
4 Unbreakable - Live - Two Steps From Hell / Bergersen, Thomas
5 Master of Shadows - Live - Two Steps From Hell / Phoenix, Nick
6 Fire Nation - Live - Two Steps From Hell & Nick Phoenix
7 Evergreen - Live - Two Steps From Hell / Bergersen, Thomas
8 Am I Not Human? - Live - Two Steps From Hell / Phoenix, Nick
9 Blackheart - Live - Two Steps From Hell / Bergersen, Thomas
10 Star Sky - Live - Two Steps From Hell / Bergersen, Thomas
11 Wings for Ukraine - Live - Two Steps From Hell & Thomas Bergersen
12 Strength of a Thousand Men - Live - Two Steps From Hell / Bergersen, Thomas
13 Victory - Live - Two Steps From Hell / Bergersen, Thomas
14 Wolf King - Live - Two Steps From Hell / Phoenix, Nick

Disc: 2
1 Flight of the Silverbird - Live - Two Steps From Hell & Thomas Bergersen
2 Titan Dream - Live - Two Steps From Hell / Phoenix, Nick
3 Dragon - Live - Two Steps From Hell / Phoenix, Nick
4 Remember Me - Live - Two Steps From Hell / Bergersen, Thomas
5 El Dorado - Live - Two Steps From Hell / Bergersen, Thomas
6 Fall of the Fountain World - Live - Two Steps From Hell / Phoenix, Nick
7 Impossible - Live - Two Steps From Hell / Bergersen, Thomas
8 Little Star - Live - Two Steps From Hell / Bergersen, Thomas
9 New Life - Live - Two Steps From Hell / Bergersen, Thomas
10 Never Give Up On Your Dreams - Live - Two Steps From Hell / Bergersen, Thomas
11 Rise Up - Live - Two Steps From Hell / Phoenix, Nick
12 Protectors of the Earth - Live - Two Steps From Hell & Thomas Bergersen
13 Stormkeeper - Live - Two Steps From Hell / Phoenix, Nick
14 Heart of Courage - Live - Two Steps From Hell / Bergersen, Thomas

foobar2000 1.6.2 / Dynamic Range Meter 1.1.1
log date: 2022-11-03 13:16:56

––––––––––––––––––––––––––––––––––––––––
Analyzed: Two Steps From Hell / Live - An Epic Music Experience
––––––––––––––––––––––––––––––––––––––––

DR Peak RMS Duration Track
––––––––––––––––––––––––––––––––––––––––
DR6 -1.01 dB -10.56 dB 6:40 01-Empire of Angels (Live)
DR6 -1.01 dB -8.95 dB 3:03 02-Cannon in D Minor (Live)
DR5 -1.01 dB -7.10 dB 2:27 03-After the Fall (Live)
DR6 -1.01 dB -9.88 dB 4:20 04-Unbreakable (Live)
DR6 -1.01 dB -8.05 dB 3:05 05-Master of Shadows (Live)
DR6 -1.01 dB -8.41 dB 5:01 06-Fire Nation (Live)
DR6 -1.01 dB -9.62 dB 3:00 07-Evergreen (Live)
DR6 -1.01 dB -9.56 dB 4:31 08-Am I Not Human? (Live)
DR6 -1.01 dB -9.37 dB 4:24 09-Blackheart (Live)
DR6 -1.01 dB -8.31 dB 5:26 10-Star Sky (Live)
DR7 -1.01 dB -13.44 dB 5:15 11-Wings for Ukraine (Live)
DR7 -1.01 dB -9.19 dB 4:09 12-Strength of a Thousand Men (Live)
DR6 -1.01 dB -8.89 dB 5:26 13-Victory (Live)
DR6 -1.01 dB -8.81 dB 4:03 14-Wolf King (Live)
––––––––––––––––––––––––––––––––––––––––

Number of tracks: 14
Official DR value: DR6

Samplerate: 48000 Hz
Channels: 2
Bits per sample: 24
Bitrate: 1776 kbps
Codec: FLAC
================================================================================

foobar2000 1.6.2 / Dynamic Range Meter 1.1.1
log date: 2022-11-03 13:17:13

––––––––––––––––––––––––––––––––––––––––
Analyzed: Two Steps From Hell / Live - An Epic Music Experience
––––––––––––––––––––––––––––––––––––––––

DR Peak RMS Duration Track
––––––––––––––––––––––––––––––––––––––––
DR5 -1.01 dB -8.57 dB 3:24 01-Flight of the Silverbird (Live)
DR6 -1.01 dB -7.79 dB 4:03 02-Titan Dream (Live)
DR8 -1.01 dB -11.44 dB 3:51 03-Dragon (Live)
DR9 -2.82 dB -16.74 dB 5:38 04-Remember Me (Live)
DR6 -1.01 dB -8.73 dB 4:14 05-El Dorado (Live)
DR5 -1.01 dB -7.94 dB 4:43 06-Fall of the Fountain World (Live)
DR6 -1.01 dB -9.30 dB 9:08 07-Impossible (Live)
DR8 -1.01 dB -13.36 dB 4:33 08-Little Star (Live)
DR6 -1.01 dB -9.44 dB 4:39 09-New Life (Live)
DR6 -1.01 dB -8.43 dB 5:10 10-Never Give Up On Your Dreams (Live)
DR6 -1.01 dB -9.06 dB 4:47 11-Rise Up (Live)
DR6 -0.45 dB -8.19 dB 2:49 12-Protectors of the Earth (Live)
DR6 -1.01 dB -7.84 dB 2:46 13-Stormkeeper (Live)
DR6 -1.01 dB -10.43 dB 3:08 14-Heart of Courage (Live)
––––––––––––––––––––––––––––––––––––––––

Number of tracks: 14
Official DR value: DR6

Samplerate: 48000 Hz
Channels: 2
Bits per sample: 24
Bitrate: 1722 kbps
Codec: FLAC
================================================================================



Thanks to the Original customer.