Swedish Chamber Orchestra & Thomas Dausgaard - Brahms - Orchestral Works (2020) [Official Digital Download 24/96]

Posted By: pyatak
Swedish Chamber Orchestra & Thomas Dausgaard - Brahms - Orchestral Works (2020) [Official Digital Download 24/96]

Swedish Chamber Orchestra & Thomas Dausgaard - Brahms - Orchestral Works (2020) [Official Digital Download 24/96]
FLAC (tracks) 24-bit/96 kHz | Front Cover | Time - 01:12:49 minutes | 1,25 GB
Classical | Label: BIS, Official Digital Download

"Begun in 2012 with the release of Symphony No. 1, Thomas Dausgaard’s four-disc traversal of the symphonies of Johannes Brahms is here brought to a close with the composer’s final work in the genre. The E minor Symphony is sometimes described as Brahms’ ‘elegiac symphony’, and has been called ‘one of the greatest orchestral works since Beethoven’. Typical for the composer is the striking degree of motivic relationships throughout the work. This includes the finale in which Brahms demonstrates his full mastery in a towering Passacaglia consisting of 30 variations and a coda. The smallish forces of the Swedish Chamber Orchestra contribute to a transparency and clarity which bring out the finer details of Brahms’ compositional web. As on previous instalments, the symphony is coupled with other works by Brahms. Included on the present disc is another late work, Tragic Overture, which concludes the programme. These two ‘serious’ works frame some of the most rousing and ebullient music Brahms ever wrote, namely his Hungarian Dances. Composed for piano four-hands, the 21 dances became immensely popular, and Brahms arranged three of them for orchestra himself. Having made his own orchestrations of the remaining 18 dances, Thomas Dausgaard has recorded the full set for his Brahms cycle, with the final nine dances included here."


TRACKLIST

01. Swedish Chamber Orchestra & Thomas Dausgaard - Symphony No. 4 in E Minor, Op. 98: I. Allegro non troppo
02. Swedish Chamber Orchestra & Thomas Dausgaard - Symphony No. 4 in E Minor, Op. 98: II. Andante moderato
03. Swedish Chamber Orchestra & Thomas Dausgaard - Symphony No. 4 in E Minor, Op. 98: III. Allegro giocoso
04. Swedish Chamber Orchestra & Thomas Dausgaard - Symphony No. 4 in E Minor, Op. 98: IV. Allegro energico e passionato
05. Swedish Chamber Orchestra & Thomas Dausgaard - 21 Hungarian Dances, WoO 1 (Excerpts Arr. T. Dausgaard for Orchestra): No. 2 in D Minor
06. Swedish Chamber Orchestra & Thomas Dausgaard - 21 Hungarian Dances, WoO 1 (Excerpts Arr. T. Dausgaard for Orchestra): No. 4 in F Minor
07. Swedish Chamber Orchestra & Thomas Dausgaard - 21 Hungarian Dances, WoO 1 (Excerpts Arr. T. Dausgaard for Orchestra): No. 8 in A Minor
08. Swedish Chamber Orchestra & Thomas Dausgaard - 21 Hungarian Dances, WoO 1 (Excerpts Arr. T. Dausgaard for Orchestra): No. 9 in E Minor
09. Swedish Chamber Orchestra & Thomas Dausgaard - 21 Hungarian Dances, WoO 1 (Excerpts Arr. T. Dausgaard for Orchestra): No. 17 in F-Sharp Minor
10. Swedish Chamber Orchestra & Thomas Dausgaard - 21 Hungarian Dances, WoO 1 (Excerpts Arr. T. Dausgaard for Orchestra): No. 18 in D Major
11. Swedish Chamber Orchestra & Thomas Dausgaard - 21 Hungarian Dances, WoO 1 (Excerpts Arr. T. Dausgaard for Orchestra): No. 19 in B Minor
12. Swedish Chamber Orchestra & Thomas Dausgaard - 21 Hungarian Dances, WoO 1 (Excerpts Arr. T. Dausgaard for Orchestra): No. 20 in E Minor
13. Swedish Chamber Orchestra & Thomas Dausgaard - 21 Hungarian Dances, WoO 1 (Excerpts Arr. T. Dausgaard for Orchestra): No. 21 in E Minor
14. Swedish Chamber Orchestra & Thomas Dausgaard - Tragic Overture, Op. 81 (Version for Orchestra)

foobar2000 1.3.16 / Dynamic Range Meter 1.1.1
log date: 2020-08-04 13:12:48

––––––––––––––––––––––––––––––––––––––––
Analyzed: Swedish Chamber Orchestra & Thomas Dausgaard / Brahms: Orchestral Works
––––––––––––––––––––––––––––––––––––––––

DR Peak RMS Duration Track
––––––––––––––––––––––––––––––––––––––––
DR14 -0.45 dB -19.79 dB 11:46 01-Symphony No. 4 in E Minor, Op. 98: I. Allegro non troppo
DR14 -1.63 dB -22.77 dB 10:24 02-Symphony No. 4 in E Minor, Op. 98: II. Andante moderato
DR13 -0.88 dB -18.49 dB 6:05 03-Symphony No. 4 in E Minor, Op. 98: III. Allegro giocoso
DR14 -0.45 dB -19.20 dB 9:40 04-Symphony No. 4 in E Minor, Op. 98: IV. Allegro energico e passionato
DR13 -0.46 dB -18.71 dB 2:55 05-21 Hungarian Dances, WoO 1 (Excerpts Arr. T. Dausgaard for Orchestra): No. 2 in D Minor
DR15 -0.40 dB -19.86 dB 3:55 06-21 Hungarian Dances, WoO 1 (Excerpts Arr. T. Dausgaard for Orchestra): No. 4 in F Minor
DR14 -0.40 dB -18.43 dB 3:06 07-21 Hungarian Dances, WoO 1 (Excerpts Arr. T. Dausgaard for Orchestra): No. 8 in A Minor
DR14 -2.31 dB -21.79 dB 2:04 08-21 Hungarian Dances, WoO 1 (Excerpts Arr. T. Dausgaard for Orchestra): No. 9 in E Minor
DR14 -0.40 dB -20.65 dB 3:01 09-21 Hungarian Dances, WoO 1 (Excerpts Arr. T. Dausgaard for Orchestra): No. 17 in F-Sharp Minor
DR12 -0.42 dB -18.40 dB 1:28 10-21 Hungarian Dances, WoO 1 (Excerpts Arr. T. Dausgaard for Orchestra): No. 18 in D Major
DR12 -1.50 dB -21.31 dB 1:45 11-21 Hungarian Dances, WoO 1 (Excerpts Arr. T. Dausgaard for Orchestra): No. 19 in B Minor
DR15 -0.61 dB -22.34 dB 2:29 12-21 Hungarian Dances, WoO 1 (Excerpts Arr. T. Dausgaard for Orchestra): No. 20 in E Minor
DR12 -1.28 dB -20.39 dB 1:41 13-21 Hungarian Dances, WoO 1 (Excerpts Arr. T. Dausgaard for Orchestra): No. 21 in E Minor
DR13 -0.43 dB -19.13 dB 12:33 14-Tragic Overture, Op. 81 (Version for Orchestra)
––––––––––––––––––––––––––––––––––––––––

Number of tracks: 14
Official DR value: DR14

Samplerate: 96000 Hz
Channels: 2
Bits per sample: 24
Bitrate: 2441 kbps
Codec: FLAC
================================================================================



Thanks to the Original customer.