Tags
Language
Tags
April 2024
Su Mo Tu We Th Fr Sa
31 1 2 3 4 5 6
7 8 9 10 11 12 13
14 15 16 17 18 19 20
21 22 23 24 25 26 27
28 29 30 1 2 3 4

Somerville College Choir, Oxford - The Dawn of Grace: Music for Christmas (2022) [Official Digital Download]

Posted By: ciklon5
Somerville College Choir, Oxford - The Dawn of Grace: Music for Christmas (2022) [Official Digital Download]

Somerville College Choir, Oxford - The Dawn of Grace: Music for Christmas (2022) [Official Digital Download]
FLAC (tracks), Lossless [24bit-96kHz] | 1:05:45 | 1 Gb
Genre: Classical / Label: Resonus Classics

Oxford’s Somerville College Choir under its director Will Dawes presents this compelling new programme of seasonal choral works solely by female composers from across the twentieth and twenty-first centuries, and including no fewer than eleven world premieres. This wide-ranging selection of repertoire reflects Somerville’s unique role as the only non-denominational college chapel at Oxford, as well as remaining true to its founding principle of enabling women. Together these works tell a different story of the nativity but also of the times we live in, when diversity and equality capture the spirit not only of Christ, but Christmas itself.

Track List:
[04:00] 01. Somerville College Choir, Oxford - O Oriens
[04:02] 02. Somerville College Choir, Oxford - Behind the Clouds
[02:12] 03. Somerville College Choir, Oxford - Drop Down, Ye Heavens
[03:22] 04. Luca Morgante - On This Day, Earth Shall Ring: II. Veni, veni Emmanuel
[03:51] 05. Somerville College Choir, Oxford - There Is No Rose
[02:10] 06. Somerville College Choir, Oxford - A Tender Shoot
[03:36] 07. Somerville College Choir, Oxford - Ivy, Chief of Trees
[04:44] 08. Luca Morgante - The Dawn of Redeeming Grace
[04:30] 09. Somerville College Choir, Oxford - O magnum mysterium
[03:45] 10. Somerville College Choir, Oxford - Peace On Earth
[01:44] 11. Somerville College Choir, Oxford - In Bethlehem Above
[04:20] 12. Somerville College Choir, Oxford - Star of Rohini
[03:50] 13. Somerville College Choir, Oxford - This Endris Night
[02:32] 14. Luca Morgante - Adeste fideles
[03:11] 15. Somerville College Choir, Oxford - Noel: Verbum caro factum est
[02:23] 16. Somerville College Choir, Oxford - My Guardian Angel
[02:53] 17. Somerville College Choir, Oxford - Ding Dong Diggety! (Arr. for choir by Janet Wheeler)
[03:04] 18. Somerville College Choir, Oxford - The Holly and the Ivy (Arr. for choir and organ by June Nixon)
[01:42] 19. Somerville College Choir, Oxford - Alleluia! A New Work is Come On Hand
[03:44] 20. Somerville College Choir, Oxford - Gaude et laetare

foobar2000 1.6.10 / Dynamic Range Meter 1.1.1
log date: 2022-11-03 16:42:01

––––––––––––––––––––––––––––––––––––––––
Analyzed: Luca Morgante / The Dawn of Grace: Music for Christmas (1-3)
Somerville College Choir, Oxford / The Dawn of Grace: Music for Christmas (4-20)
––––––––––––––––––––––––––––––––––––––––

DR Peak RMS Duration Track
––––––––––––––––––––––––––––––––––––––––
DR9 -17.12 dB -28.29 dB 3:23 04-On This Day, Earth Shall Ring: II. Veni, veni Emmanuel
DR9 -18.92 dB -32.96 dB 4:45 08-The Dawn of Redeeming Grace
DR10 -18.54 dB -31.64 dB 2:33 14-Adeste fideles
DR12 -1.89 dB -20.72 dB 4:01 01-O Oriens
DR14 -11.13 dB -31.10 dB 4:03 02-Behind the Clouds
DR13 -1.54 dB -21.48 dB 2:12 03-Drop Down, Ye Heavens
DR14 -3.14 dB -24.76 dB 3:52 05-There Is No Rose
DR13 -2.45 dB -25.61 dB 2:10 06-A Tender Shoot
DR13 -7.67 dB -26.79 dB 3:36 07-Ivy, Chief of Trees
DR12 -2.14 dB -21.60 dB 4:30 09-O magnum mysterium
DR13 -15.15 dB -34.73 dB 3:46 10-Peace On Earth
DR12 -2.24 dB -21.23 dB 1:44 11-In Bethlehem Above
DR16 -2.78 dB -24.88 dB 4:20 12-Star of Rohini
DR15 -2.33 dB -23.48 dB 3:50 13-This Endris Night
DR12 -8.73 dB -25.85 dB 3:11 15-Noel: Verbum caro factum est
DR14 -1.14 dB -20.81 dB 2:24 16-My Guardian Angel
DR13 -0.76 dB -20.06 dB 2:53 17-Ding Dong Diggety! (Arr. for choir by Janet Wheeler)
DR14 -0.61 dB -20.97 dB 3:05 18-The Holly and the Ivy (Arr. for choir and organ by June Nixon)
DR15 -4.28 dB -25.36 dB 1:42 19-Alleluia! A New Work is Come On Hand
DR12 -1.01 dB -18.81 dB 3:45 20-Gaude et laetare
––––––––––––––––––––––––––––––––––––––––

Number of tracks: 20
Official DR value: DR13

Samplerate: 96000 Hz
Channels: 2
Bits per sample: 24
Bitrate: 2374 kbps
Codec: FLAC
================================================================================