Tags
Language
Tags
December 2022
Su Mo Tu We Th Fr Sa
27 28 29 30 1 2 3
4 5 6 7 8 9 10
11 12 13 14 15 16 17
18 19 20 21 22 23 24
25 26 27 28 29 30 31

Sabu Martinez - Sorcery! (1958) [2011, 24-bit/44.1 kHz]

Posted By: v3122
Sabu Martinez - Sorcery! (1958) [2011, 24-bit/44.1 kHz]

Sabu Martinez - Sorcery! (1958)
FLAC (Tracks) 24-bit/44.1 kHz | Official Digital Download | Time: 00:43:07
World Jazz | Label: Trunk Records | ~ 395 Mb

Sorcery! showcases the fully fleshed out vision of New York-bred conguero and percussionist Louis “Sabu” Martinez (1930–1979) who leads a nonet on this six-track opus congastium. It is released in 1958 on Columbia Records and comprises of anything but unique compositions, or better still, developments and progressions. Each of the concoctions is comparably long by Exotica standards and eminently vivid. Despite the screaming title and the premise of a largely percussion-focused album, the intrinsic darkness that reigns over the majority of the tracks is not intimidating, not even when Oriental tonalities are injected…

~ ambientexotica.com
Sabu Martinez - Sorcery! (1958):

Tracklist:

01 - Aurora Borealis 07:58
02 - Moon Black 07:34
03 - Sorcery 04:58
04 - Bonco 06:34
05 - Milk Weed 10:20
06 - Sol 05:43

foobar2000 1.4.3 / Dynamic Range Meter 1.1.1
log date: 2021-08-31 18:14:22

––––––––––––––––––––––––––––––––––––––––
Analyzed: Sabu Martinez / Sorcery!
––––––––––––––––––––––––––––––––––––––––

DR Peak RMS Duration Track
––––––––––––––––––––––––––––––––––––––––
DR13 -2.74 dB -18.09 dB 7:58 01-Aurora Borealis
DR14 -4.40 dB -22.48 dB 7:35 02-Moon Black
DR15 -3.76 dB -20.98 dB 4:58 03-Sorcery
DR13 -3.36 dB -18.00 dB 6:35 04-Bonco
DR13 -1.55 dB -18.51 dB 10:21 05-Milk Weed
DR13 -2.04 dB -17.58 dB 5:43 06-Sol
––––––––––––––––––––––––––––––––––––––––

Number of tracks: 6
Official DR value: DR14

Samplerate: 44100 Hz
Channels: 2
Bits per sample: 24
Bitrate: 1285 kbps
Codec: FLAC

All thanks go to the original releaser

Download Sabu Martinez - Sorcery! (1958):