Tags
Language
Tags

Mastodon - Medium Rarities (2020) [Official Digital Download]

Posted By: pyatak
Mastodon - Medium Rarities (2020) [Official Digital Download]

Mastodon - Medium Rarities (2020) [Official Digital Download]
FLAC (tracks) 24-bit/44.1 kHz | Front Cover | Time - 01:01:46 minutes | 857 MB
Rock | Label: Reprise , Official Digital Download

When Mastodon invite you to go deep, you best bring an extra supply of oxygen. Given the place the Atlanta behemoth came from, a primeval, subterranean metal underworld, the prospect of plummeting even further within is almost enough to bring on a dose of the bends.

Since their emergence at the start of the century, Mastodon have shown that brain-twisting heaviness doesn’t have to be dull-edged, and that it can even be a thing of spinning delight. This oddball compilation brings together rarities, covers and live tracks from throughout their career. And rather than adhering to anything so obvious as chronology it becomes a seemingly random, yet highly effective, stampede – but that’s Mastodon to the core.

Most fans will have heard Fallen Torches, the album’s sole new recording and a heroic attempt to salvage 2020 via monolithic riffs and an outro thunderous enough to crack planets. It features guest vocals from Neurosis’ Scott Kelly plus a rocket of a chorus sung by multi-talented drummer Brann Dailor, still the only member of Mastodon you could introduce to your mum. Then the hirsute quartet chuck us into A Commotion, one half of an unlikely split single they shared with Canadian indie singer Feist in 2012 (she covered Black Tongue, equally inconceivably). Mastodon inject the relatively spindly original with a sinister punk metal edge that’s off kilter and immediate at the same time.

TRACKLIST

1. Mastodon - Fallen Torches
2. Mastodon - A Commotion
3. Mastodon - Asleep in the Deep (Instrumental)
4. Mastodon - Capillarian Crest (Live)
5. Mastodon - A Spoonful Weighs a Ton
6. Mastodon - Toe to Toes (Instrumental)
7. Mastodon - Circle of Cysquatch (Live)
8. Mastodon - Atlanta (feat. Gibby Haynes)
9. Mastodon - Jaguar God (Instrumental)
10. Mastodon - Cut You Up with a Linoleum Knife (from the "Aqua Teen Hunger Force Colon Movie Film for Theaters Colon the Soundtrack")
11. Mastodon - Blood & Thunder (Live)
12. Mastodon - White Walker
13. Mastodon - Halloween (Instrumental)
14. Mastodon - Crystal Skull (Live)
15. Mastodon - Orion
16. Mastodon - Iron Tusk (Live)

foobar2000 1.3.16 / Dynamic Range Meter 1.1.1
log date: 2020-09-10 23:08:13

––––––––––––––––––––––––––––––––––––––––
Analyzed: Mastodon / Medium Rarities
––––––––––––––––––––––––––––––––––––––––

DR Peak RMS Duration Track
––––––––––––––––––––––––––––––––––––––––
DR7 -0.58 dB -8.84 dB 4:23 01-Fallen Torches
DR7 -0.72 dB -9.49 dB 4:15 02-A Commotion
DR8 -0.62 dB -9.14 dB 6:13 03-Asleep in the Deep (Instrumental)
DR7 -0.60 dB -8.22 dB 4:20 04-Capillarian Crest (Live)
DR8 -0.60 dB -11.60 dB 3:28 05-A Spoonful Weighs a Ton
DR7 -0.62 dB -9.21 dB 4:28 06-Toe to Toes (Instrumental)
DR7 -1.18 dB -9.50 dB 3:16 07-Circle of Cysquatch (Live)
DR7 -0.62 dB -9.00 dB 3:25 08-Atlanta (feat. Gibby Haynes)
DR7 -0.61 dB -8.99 dB 7:55 09-Jaguar God (Instrumental)
DR7 -0.60 dB -8.07 dB 1:50 10-Cut You Up with a Linoleum Knife (from the "Aqua Teen Hunger Force Colon Movie Film for Theaters Colon the Soundtrack")
DR7 -0.60 dB -8.64 dB 3:53 11-Blood & Thunder (Live)
DR8 -0.62 dB -9.75 dB 4:20 12-White Walker
DR7 -0.60 dB -8.73 dB 4:38 13-Halloween (Instrumental)
DR7 -0.60 dB -8.08 dB 3:26 14-Crystal Skull (Live)
DR7 -0.60 dB -9.42 dB 8:16 15-Orion
DR8 -0.60 dB -9.44 dB 2:49 16-Iron Tusk (Live)
––––––––––––––––––––––––––––––––––––––––

Number of tracks: 16
Official DR value: DR7

Samplerate: 44100 Hz
Channels: 2
Bits per sample: 24
Bitrate: 1684 kbps
Codec: FLAC
================================================================================



Thanks to the Original customer.