Tags
Language
Tags
March 2024
Su Mo Tu We Th Fr Sa
25 26 27 28 29 1 2
3 4 5 6 7 8 9
10 11 12 13 14 15 16
17 18 19 20 21 22 23
24 25 26 27 28 29 30
31 1 2 3 4 5 6

Lawrence Brownlee - Rising (2023) [Official Digital Download 24/96]

Posted By: pyatak
Lawrence Brownlee - Rising (2023) [Official Digital Download 24/96]

Lawrence Brownlee - Rising (2023) [Official Digital Download 24/96]
FLAC (tracks) 24-bit/96 kHz | Front Cover | Time - 65:29 minutes | 1,1 GB
Classical | Studio Master, Official Digital Download

A captivating and charismatic tenor, Lawrence Brownlee is a leading force in opera, wielding his voice in the industry to promote activism and diversity. “One of the most in-demand opera singers in the world today,” according to NPR, Brownlee returns to Celebrity Series with a program based on texts by poets and authors of the Harlem Renaissance. Joined by pianist Kevin Miller, Brownlee will perform brand-new music that he is commissioning from acclaimed Black composers.

For Brownlee, dazzling classical music audiences and advocating for diversity within the field of classical music go hand in hand. “As an artist, I think it is important that we are actively advocating for this beautiful art form we love so much,” he says, “ensuring that it will be alive and well for many years to come.”

Join Lawrence Brownlee as he shares his bold and thrilling vision: he reflects on the past as he looks ahead to a more inclusive vocal repertoire.

TRACKLIST

1 Beauty That Is Never Old
2 The Gift to Sing
3 To America
4 April Song
5 Lost Illusions
6 Southern Mansion
7 I Know My Soul
8 Dance of Love
9 "Songs of the Seasons" Cycle: Poeme d'Automne
10 "Songs of the Seasons" Cycle: Winter Moon
11 "Songs of the Seasons" Cycle: Young Love in Spring
12 "Songs of the Seasons" Cycle: Summer Storm
13 Supplication
14 Compensation
15 My People
16 Peace
17 Invocation
18 Romance
19 Desire Song Cycle: Desire
20 Desire Song Cycle: Dream
21 Desire Song Cycle: Juliet
22 Desire Song Cycle: Man
23 Silver Rain Cycle: In time of silver rain
24 Silver Rain Cycle: Fulfillment
25 Silver Rain Cycle: Night Song
26 Silver Rain Cycle: Silence
27 Silver Rain Cycle: Carolina Cabin
28 Silver Rain Cycle: Songs
29 Silver Rain Cycle: Sleep

foobar2000 1.6.2 / Dynamic Range Meter 1.1.1
log date: 2023-06-01 13:47:58

––––––––––––––––––––––––––––––––––––––––
Analyzed: Lawrence Brownlee / Rising
––––––––––––––––––––––––––––––––––––––––

DR Peak RMS Duration Track
––––––––––––––––––––––––––––––––––––––––
DR12 -1.85 dB -20.05 dB 1:48 01-Beauty That Is Never Old
DR10 -0.32 dB -13.63 dB 1:30 02-The Gift to Sing
DR12 -2.76 dB -18.17 dB 1:17 03-To America
DR12 -1.39 dB -17.42 dB 1:38 04-April Song
DR12 -0.42 dB -17.97 dB 1:59 05-Lost Illusions
DR13 -1.92 dB -18.86 dB 2:50 06-Southern Mansion
DR13 -1.51 dB -18.95 dB 3:38 07-I Know My Soul
DR13 -0.32 dB -16.80 dB 3:34 08-Dance of Love
DR11 -1.96 dB -17.68 dB 2:09 09-"Songs of the Seasons" Cycle: Poeme d'Automne
DR13 -6.81 dB -23.17 dB 0:49 10-"Songs of the Seasons" Cycle: Winter Moon
DR12 -0.32 dB -15.56 dB 2:55 11-"Songs of the Seasons" Cycle: Young Love in Spring
DR10 -0.32 dB -14.70 dB 3:35 12-"Songs of the Seasons" Cycle: Summer Storm
DR12 -2.36 dB -19.57 dB 2:18 13-Supplication
DR12 -2.85 dB -19.50 dB 1:37 14-Compensation
DR8 -0.31 dB -12.41 dB 3:23 15-My People
DR11 -0.32 dB -16.04 dB 3:16 16-Peace
DR12 -0.32 dB -16.97 dB 4:14 17-Invocation
DR14 -0.32 dB -21.29 dB 8:28 18-Romance
DR13 -0.32 dB -16.54 dB 1:23 19-Desire Song Cycle: Desire
DR12 -0.32 dB -17.01 dB 1:10 20-Desire Song Cycle: Dream
DR12 -0.32 dB -15.06 dB 1:11 21-Desire Song Cycle: Juliet
DR12 -2.07 dB -18.08 dB 1:35 22-Desire Song Cycle: Man
DR11 -1.40 dB -16.39 dB 2:05 23-Silver Rain Cycle: In time of silver rain
DR11 -0.67 dB -16.15 dB 1:50 24-Silver Rain Cycle: Fulfillment
DR13 -4.01 dB -23.46 dB 1:13 25-Silver Rain Cycle: Night Song
DR13 -3.30 dB -21.61 dB 0:55 26-Silver Rain Cycle: Silence
DR13 -1.77 dB -18.90 dB 1:16 27-Silver Rain Cycle: Carolina Cabin
DR13 -3.78 dB -20.12 dB 0:32 28-Silver Rain Cycle: Songs
DR11 -0.83 dB -17.89 dB 1:38 29-Silver Rain Cycle: Sleep
––––––––––––––––––––––––––––––––––––––––

Number of tracks: 29
Official DR value: DR12

Samplerate: 96000 Hz
Channels: 2
Bits per sample: 24
Bitrate: 2420 kbps
Codec: FLAC
================================================================================



Thanks to the Original customer.