Tags
Language
Tags
December 2022
Su Mo Tu We Th Fr Sa
27 28 29 30 1 2 3
4 5 6 7 8 9 10
11 12 13 14 15 16 17
18 19 20 21 22 23 24
25 26 27 28 29 30 31

HDtracks 2018 Hi-Res Sampler (2018)

Posted By: v3122
HDtracks 2018 Hi-Res Sampler (2018)

HDtracks 2018 Hi-Res Sampler (2018)
FLAC (Tracks) 24-bit/96 kHz | Official Digital Download | Time: 1:03:00
Jazz, Classical, Folk, World, & Country | HD Tracks | ~ 1.23 Gb

~ 12 x File, FLAC, Compilation, Sampler, 96/24 ~

HDtracks 2018 Hi-Res Sampler (2018):

Tracklist:

01. Isaac Hayes - Hung Up on My Baby [6:18]
02. Fourplay - Moonjogger [6:10]
03. Robert Len - Good Morning Heartache [3:42]
04. Joel Fan, Northwest Sinfonietta & Christophe Chagnard - Caprice-valse in A-flat major, Op. 76 "Wedding Cake" [6:21]
05. Noah Wall - Down by the Riverside [2:42]
06. The New Appalachians - Wayfaring Stranger [5:38]
07. Yuko Mabuchi Trio - Sona's Song [4:19]
08. American Contemporary Music Ensemble - Jahrzeit [10:12]
09. Ayreheart - John Barleycorn (Roud 64, 16th Century) [5:39]
10. Eldissa - Rain on Me [3:48]
11. Julienne Taylor - Toybox [4:28]
12. Doug MacLeod - One for Tampa Red [3:43]

Cue Corrector v. 10.1.7 / b. 2042 (May 31, 2022)
log date: 2022-06-09 19:24:25

––––––––––––––––––––––––––––––––––––––––
Album : HDtracks 2018 Hi-Res Sampler
Artist : VA
Year : 2018
––––––––––––––––––––––––––––––––––––––––

DR Peak RMS Duration Track
––––––––––––––––––––––––––––––––––––––––
DR10 -0.80 dB -14.84 dB 6:18 1 - Hung Up on My Baby / Isaac Hayes
DR16 -6.68 dB -26.92 dB 6:10 2 - Moonjogger / Fourplay
DR11 -0.25 dB -14.68 dB 3:42 3 - Good Morning Heartache / Robert Len
DR12 -14.46 dB -30.84 dB 6:21 4 - Caprice-valse in A-flat major, Op. 76 "Wedding Cake" / Joel Fan, Northwest Sinfonietta & Christophe Chagnard
DR12 -0.55 dB -15.91 dB 2:42 5 - Down by the Riverside / Noah Wall
DR14 -0.48 dB -20.22 dB 5:38 6 - Wayfaring Stranger / The New Appalachians
DR15 -1.93 dB -24.90 dB 4:19 7 - Sona's Song / Yuko Mabuchi Trio
DR12 -0.36 dB -16.33 dB 10:12 8 - Jahrzeit / American Contemporary Music Ensemble
DR12 -0.30 dB -16.12 dB 5:39 9 - John Barleycorn (Roud 64, 16th Century) / Ayreheart
DR9 -0.77 dB -11.66 dB 3:48 10 - Rain on Me / Eldissa
DR10 -0.50 dB -11.49 dB 4:28 11 - Toybox / Julienne Taylor
DR12 -5.00 dB -22.57 dB 3:43 12 - One for Tampa Red / Doug MacLeod
––––––––––––––––––––––––––––––––––––––––

Number of tracks : 12
Official DR Value: DR12

Channels : 2
Bits per sample : 24
Average bitrate : 2712 kbps
Codec : FLAC

All thanks go to the original releaser

Download HDtracks 2018 Hi-Res Sampler (2018):