Freddie Hubbard - Hot Horn (1981/2019) [Official Digital Download 24/96]

Posted By: Pisulik
Freddie Hubbard - Hot Horn (1981/2019) [Official Digital Download 24/96]

Freddie Hubbard - Hot Horn (1981/2019)
FLAC (tracks) 24-bit/96 kHz | Time - 47:32 minutes | 869 MB
Studio Master, Official Digital Download | Artwork: Front cover

The album jacket of this budget LP contains many mistakes (Cedar "Watton" on piano?) and the recording quality of the live (bootleg?) session is erratic but trumpeter Freddie Hubbard was at the peak of his powers in the early '70s, making this set worth picking up by his true fans. Hubbard stretches out on long versions of "Intrepid Fox" and "Pensativa" with his quintet (which includes Junior Cook on tenor, pianist Cedar Walton, bassist Wayne Dockery and drummer Billy Hayes) and the rhythm section led by Watton, uhh Walton gets The Beatles' "Yesterday" as a feature.

Tracklist:

01. Intrepid Fox
02. Yesterday
03. Pensativa

foobar2000 1.3.7 / Dynamic Range Meter 1.1.1
log date: 2020-01-27 01:35:51

––––––––––––––––––––––––––––––––––––––––
Analyzed: Freddie Hubbard / Hot Horn
––––––––––––––––––––––––––––––––––––––––

DR Peak RMS Duration Track
––––––––––––––––––––––––––––––––––––––––
DR14 -1.22 dB -17.28 dB 19:48 01-Intrepid Fox
DR16 -1.22 dB -21.79 dB 9:37 02-Yesterday
DR16 -1.49 dB -22.63 dB 18:08 03-Pensativa
––––––––––––––––––––––––––––––––––––––––

Number of tracks: 3
Official DR value: DR15

Samplerate: 96000 Hz
Channels: 2
Bits per sample: 24
Bitrate: 2464 kbps
Codec: FLAC
================================================================================


All thanks go to the original releaser