Earl Hines - Earl "Fatha" Hines (1970/2019) [Official Digital Download 24/96]

Posted By: Pisulik
Earl Hines - Earl "Fatha" Hines (1970/2019) [Official Digital Download 24/96]

Earl Hines - Earl "Fatha" Hines (1970/2019)
FLAC (tracks) 24-bit/96 kHz | Time - 29:19 minutes | 549 MB
Studio Master, Official Digital Download | Artwork: Front cover

Earl Hines is accompanied by Ralph Carmichael's orchestra as he revisits a dozen standards and originals which he had recorded earlier in his career. In spite of the liner-note praise from both Nat King Cole and Stan Kenton (both of whom were also Capitol artists at the time), Carmichael's rather bland, unadventurous arrangements do not seem to inspire Hines very much, as his playing takes on a conservative, easy listening sound that isn't generally associated with him. Hines is in full steam tackling his landmark composition "Rosetta" and shows off a taste of his tremendous chops in "Little Girl," but these tracks ends up being the exception rather than the rule. The music is pleasant for background listening, but serious fans of Earl Hines are advised to get the pianist's own big band recordings or his solo and small-group dates as a leader, as these 1963 sessions for Capitol will doubtlessly disappoint most jazz fans.

Tracklist:

01. Nice Work If You Can Get It
02. The Web
03. Blues For Garroway
04. If I Had You
05. Hollywood Hop
06. A Jumpin' Something
07. Honeysuckle Rose
08. Gone With The Wind
09. Dark Eyes
10. Humoresque

foobar2000 1.3.7 / Dynamic Range Meter 1.1.1
log date: 2020-01-27 02:27:35

––––––––––––––––––––––––––––––––––––––––
Analyzed: Earl Hines / Earl "Fatha" Hines
––––––––––––––––––––––––––––––––––––––––

DR Peak RMS Duration Track
––––––––––––––––––––––––––––––––––––––––
DR10 -1.22 dB -12.89 dB 2:33 01-Nice Work If You Can Get It
DR11 -1.22 dB -12.89 dB 3:08 02-The Web
DR10 -1.22 dB -13.49 dB 2:52 03-Blues For Garroway
DR11 -1.22 dB -14.10 dB 3:09 04-If I Had You
DR11 -1.22 dB -13.64 dB 2:39 05-Hollywood Hop
DR11 -1.22 dB -13.33 dB 2:45 06-A Jumpin' Something
DR9 -1.22 dB -11.37 dB 2:49 07-Honeysuckle Rose
DR10 -1.22 dB -12.82 dB 2:47 08-Gone With The Wind
DR9 -1.48 dB -13.68 dB 2:45 09-Dark Eyes
DR11 -1.22 dB -13.91 dB 3:55 10-Humoresque
––––––––––––––––––––––––––––––––––––––––

Number of tracks: 10
Official DR value: DR10

Samplerate: 96000 Hz
Channels: 2
Bits per sample: 24
Bitrate: 2600 kbps
Codec: FLAC
================================================================================


All thanks go to the original releaser