Tags
Language
Tags
September 2023
Su Mo Tu We Th Fr Sa
27 28 29 30 31 1 2
3 4 5 6 7 8 9
10 11 12 13 14 15 16
17 18 19 20 21 22 23
24 25 26 27 28 29 30
Attention❗ To save your time, in order to download anything on this site, you must be registered 👉 HERE. If you do not have a registration yet, it is better to do it right away. ✌

Dallyn Vail Bayles, Sandra Turley, Mark Johnson - The Morning Breaks, the Shadows Flee (2022) [Official Digital Download]

Posted By: pyatak
Dallyn Vail Bayles, Sandra Turley, Mark Johnson - The Morning Breaks, the Shadows Flee (2022) [Official Digital Download]

Dallyn Vail Bayles, Sandra Turley, Mark Johnson - The Morning Breaks, the Shadows Flee (2022) [Official Digital Download]
FLAC (tracks) 24-bit/48 kHz | Front Cover | Time - 68:17 minutes | 726 MB
Classical | Label: Tantara Records, Official Digital Download

From the small town of Green River, Utah, DALLYN VAIL BAYLES is a professional actor, singer and recording artist. Bayles performed with the Broadway touring company of The Phantom of the Opera understudying and performing the roles of Phantom, Raoul and Andre. He played Enjolras on the Broadway tour of Les Misérables and was part of the show’s China premiere engagement that starred Colm Wilkinson. In New York City, Bayles performed with Stephen Schwartz and Norm Lewis in the industry reading of Children of Eden playing the role of Adam. He also played Villefort in the Tuacahn New Works reading of The Count of Monte Cristo with Frank Wildhorn and Jack Murphy.

Bayles has performed leading roles in several regional theater productions across the country, including the roles of Captain von Trapp in The Sound of Music, King Triton in The Little Mermaid, and the Beast in Disney’s When You Wish at Tuacahn Amphitheatre; D’Ysquith Family in A Gentleman’s Guide to Love and Murder (Hale Centre Theatre), Chauvelin in The Scarlet Pimpernel (Hale Centre Theatre), Edward Rochester in Jane Eyre (Hale Center Theater Orem), Archibald Craven in The Secret Garden (Village Theatre and HCTO), Billy Crocker in Anything Goes (Greater Lowell Music Theater), Godfrey Cass in the world premiere production of The Weaver of Raveloe (A.R.T.’s Oberon Stage), Father in Ragtime (Hale Centre Theatre), Emile de Becque in South Pacific (HCTO), Count Chandon in Phantom (Fullerton Civic Light Opera), and Pharaoh in Aida (Fiddlehead Theatre). At the Boston Conservatory, Bayles performed the roles of Sid Sorokin in The Pajama Game, John Wilkes Booth in Assassins, and Jud Fry in Oklahoma!. Bayles is a member of Actors' Equity Association.

As a concert soloist, Bayles has performed across the country with several distinguished performers and musicians. Bayles performed at Carnegie Hall in Tim Janis’ "Christmas" and "The American Christmas Carol" concerts along with Tori Kelly, Colbie Caillat, Matthew Morrison, Sierra Boggess, Hayley Westenra and other stars of stage and screen. He was honored to perform with Rebecca Luker and the Tabernacle Choir at the 85th birthday celebration of past President of The Church of Jesus Christ of Latter-day Saints Thomas S. Monson, and has been a frequent guest soloist with the Tabernacle Choir on their broadcast “Music and the Spoken Word.” Bayles has also performed as a guest soloist in concerts with Broadway composer Frank Wildhorn, the Utah Symphony, Oscar "Andy" Hammerstein III, and Emmy Award winning and Grammy-nominated composer Kurt Bestor.

TRACKLIST

01. Dallyn Vail Bayles, Sandra Turley, Mark Johnson - A Voice of Gladness: No. 1, How Shall I Know
02. Dallyn Vail Bayles, Sandra Turley, Mark Johnson - A Voice of Gladness: No. 2, Ask of God
03. Dallyn Vail Bayles, Sandra Turley, Mark Johnson - A Voice of Gladness: No. 3, What Is This Dark Foreboding Fear?
04. Dallyn Vail Bayles, Sandra Turley, Mark Johnson - A Voice of Gladness: No. 4, “Joseph”
05. Dallyn Vail Bayles, Sandra Turley, Mark Johnson - A Voice of Gladness: No. 5, What Do We Hear?
06. Dallyn Vail Bayles, Sandra Turley, Mark Johnson - A Voice of Gladness: No. 6, He Lives!
07. Dallyn Vail Bayles, Sandra Turley, Mark Johnson - A Voice of Gladness: No. 7, Let the Earth Break Forth in Singing
08. Dallyn Vail Bayles, Sandra Turley, Mark Johnson - I Went Home
09. Dallyn Vail Bayles, Sandra Turley, Mark Johnson - Joseph
10. Dallyn Vail Bayles, Sandra Turley, Mark Johnson - Lord, I Would Follow Thee
11. Dallyn Vail Bayles, Sandra Turley, Mark Johnson - I Feel My Savior’s Love
12. Dallyn Vail Bayles, Sandra Turley, Mark Johnson - O Dear Father, Help Me Pray
13. Dallyn Vail Bayles, Sandra Turley, Mark Johnson - Thy Gentle Voice
14. Dallyn Vail Bayles, Sandra Turley, Mark Johnson - Sometimes My Soul
15. Dallyn Vail Bayles, Sandra Turley, Mark Johnson - The Lamb
16. Dallyn Vail Bayles, Sandra Turley, Mark Johnson - He Is with Us
17. Dallyn Vail Bayles, Sandra Turley, Mark Johnson - May My Life Reflect Thy Will
18. Dallyn Vail Bayles, Sandra Turley, Mark Johnson - To Love, to Serve, to Offer All
19. Dallyn Vail Bayles, Sandra Turley, Mark Johnson - Faith in Every Footstep
20. Dallyn Vail Bayles, Sandra Turley, Mark Johnson - As Saints in Latter Days

foobar2000 1.6.2 / Dynamic Range Meter 1.1.1
log date: 2022-03-23 22:28:38

––––––––––––––––––––––––––––––––––––––––
Analyzed: Dallyn Vail Bayles, Sandra Turley, Mark Johnson / The Morning Breaks, the Shadows Flee
––––––––––––––––––––––––––––––––––––––––

DR Peak RMS Duration Track
––––––––––––––––––––––––––––––––––––––––
DR6 -1.45 dB -10.42 dB 2:15 01-A Voice of Gladness: No. 1, How Shall I Know
DR7 -1.03 dB -11.11 dB 2:54 02-A Voice of Gladness: No. 2, Ask of God
DR8 -1.04 dB -12.94 dB 2:31 03-A Voice of Gladness: No. 3, What Is This Dark Foreboding Fear?
DR8 -3.03 dB -14.94 dB 1:13 04-A Voice of Gladness: No. 4, “Joseph”
DR6 -1.02 dB -9.80 dB 3:49 05-A Voice of Gladness: No. 5, What Do We Hear?
DR7 -1.03 dB -11.02 dB 4:12 06-A Voice of Gladness: No. 6, He Lives!
DR7 -1.03 dB -10.81 dB 3:27 07-A Voice of Gladness: No. 7, Let the Earth Break Forth in Singing
DR7 -1.53 dB -11.98 dB 3:20 08-I Went Home
DR9 -1.01 dB -12.82 dB 4:28 09-Joseph
DR7 -1.03 dB -11.21 dB 4:05 10-Lord, I Would Follow Thee
DR6 -1.93 dB -9.74 dB 3:04 11-I Feel My Savior’s Love
DR7 -1.03 dB -10.88 dB 3:40 12-O Dear Father, Help Me Pray
DR6 -1.48 dB -10.28 dB 3:31 13-Thy Gentle Voice
DR7 -1.03 dB -10.53 dB 3:12 14-Sometimes My Soul
DR6 -1.03 dB -10.75 dB 2:58 15-The Lamb
DR6 -1.02 dB -9.75 dB 2:54 16-He Is with Us
DR7 -1.03 dB -11.98 dB 4:19 17-May My Life Reflect Thy Will
DR9 -1.03 dB -12.73 dB 2:43 18-To Love, to Serve, to Offer All
DR7 -1.03 dB -10.53 dB 5:14 19-Faith in Every Footstep
DR6 -1.03 dB -9.60 dB 4:28 20-As Saints in Latter Days
––––––––––––––––––––––––––––––––––––––––

Number of tracks: 20
Official DR value: DR7

Samplerate: 48000 Hz
Channels: 2
Bits per sample: 24
Bitrate: 1488 kbps
Codec: FLAC
================================================================================



Thanks to the Original customer.