Benny Carter - The Early Benny Carter (1968/2019) [Official Digital Download 24/96]

Posted By: Pisulik
Benny Carter - The Early Benny Carter (1968/2019) [Official Digital Download 24/96]

Benny Carter - The Early Benny Carter (1968/2019)
FLAC (tracks) 24-bit/96 kHz | Time - 29:41 minutes | 494 MB
Studio Master, Official Digital Download | Artwork: Front cover

This budget LP just contains ten short selections and does not give personnel or exact recording dates. Recorded in London during 1936-37, the brief program does contain more than its share of rewarding moments, most notably the debut recording of Carter's "When Lights Are Low," the advanced "Waltzin' the Blues" (performed at a time when jazz waltzes were unheard of), the atmospheric "Nightfall," "Just a Mood" and a fine version of "Royal Garden Blues." Carter is heard throughout, switching between alto, clarinet, tenor and trumpet.

Tracklist:

01. Swingin' at Maida Vale
02. Nightfall
03. I've Got Two Lips
04. If Only I Could Read Your Mind
05. Gin and Jive
06. Accent on Swing
07. Just a Mood
08. Royal Garden Blues
09. When Lights Are Low
10. Waltzin' the Blues

foobar2000 1.3.7 / Dynamic Range Meter 1.1.1
log date: 2020-01-27 01:54:03

––––––––––––––––––––––––––––––––––––––––
Analyzed: Benny Carter / The Early Benny Carter
––––––––––––––––––––––––––––––––––––––––

DR Peak RMS Duration Track
––––––––––––––––––––––––––––––––––––––––
DR11 -1.22 dB -14.25 dB 2:44 01-Swingin' at Maida Vale
DR10 -1.22 dB -13.47 dB 3:10 02-Nightfall
DR11 -1.22 dB -14.70 dB 2:53 03-I've Got Two Lips
DR11 -1.22 dB -13.93 dB 3:03 04-If Only I Could Read Your Mind
DR12 -1.26 dB -15.75 dB 2:58 05-Gin and Jive
DR12 -1.22 dB -15.00 dB 2:49 06-Accent on Swing
DR9 -0.39 dB -12.55 dB 3:27 07-Just a Mood
DR12 -1.22 dB -15.45 dB 3:02 08-Royal Garden Blues
DR10 -1.22 dB -13.26 dB 2:47 09-When Lights Are Low
DR11 -1.22 dB -15.33 dB 2:53 10-Waltzin' the Blues
––––––––––––––––––––––––––––––––––––––––

Number of tracks: 10
Official DR value: DR11

Samplerate: 96000 Hz
Channels: 2
Bits per sample: 24
Bitrate: 2177 kbps
Codec: FLAC
================================================================================


All thanks go to the original releaser