Pixies - Doolittle (1989) [MFSL 2008] PS3 ISO + Hi-Res FLAC

Posted By: HDAtall
Pixies - Doolittle (1989) [MFSL 2008] PS3 ISO + Hi-Res FLAC

Pixies - Doolittle (1989) [MFSL 2008]
PS3 Rip | SACD ISO | DSD64 2.0 > 1-bit/2.8224 MHz | 38:43 minutes | Scans included | 1,25 GB
or FLAC (converted with foobar2000 to tracks) 24bit/96 kHz | Full Scans included | 962 MB
Mobile Fidelity Sound Lab # UDSACD 2033

Doolittle is the second studio album by American alternative rock band Pixies. The album's offbeat and dark subject material, featuring references to surrealism, Biblical violence, torture and death, contrasts with the clean production sound achieved by the newly hired producer Gil Norton. Doolittle was the Pixies' first international release.

After 1988's brilliant but abrasive Surfer Rosa, the Pixies' sound couldn't get much more extreme. Their Elektra debut, Doolittle, reins in the noise in favor of pop songcraft and accessibility. Producer Gil Norton's sonic sheen adds some polish, but Black Francis' tighter songwriting focuses the group's attack. Doolittle's most ferocious moments, like "Dead", a visceral retelling of David and Bathsheba's affair – are more stylized than the group's past outbursts. Meanwhile, their poppy side surfaces on the irresistible single "Here Comes Your Man" and the sweetly surreal love song "La La Love You". The Pixies' arty, noisy weirdness mix with just enough hooks to produce gleefully demented singles like "Debaser", – inspired by Bunuel's classic surrealist short Un Chien Andalou – and "Wave of Mutilation", their surfy ode to driving a car into the sea. Though Doolittle's sound is cleaner and smoother than the Pixies' earlier albums, there are still plenty of weird, abrasive vignettes: the blankly psychotic "There Goes My Gun", "Crackity Jones", a song about a crazy roommate Francis had in Puerto Rico, and the nihilistic finale "Gouge Away". Meanwhile, "Tame", and "I Bleed" continue the Pixies' penchant for cryptic kink. But the album doesn't just refine the Pixies' sound; they also expand their range on the brooding, wannabe spaghetti western theme "Silver" and the strangely theatrical "Mr. Grieves". "Hey" and "Monkey Gone to Heaven", on the other hand, stretch Francis' lyrical horizons: "Monkey"’s elliptical environmentalism and "Hey"’s twisted longing are the Pixies' versions of message songs and romantic ballads. Their most accessible album, Doolittle's wide-ranging moods and sounds make it one of their most eclectic and ambitious. A fun, freaky alternative to most other late-'80s college rock, it's easy to see why the album made the Pixies into underground rock stars.

Tracklist:

01. Debaser
02. Tame
03. Wave Of Mutilation
04. I Bleed
05. Here Comes Your Man
06. Dead
07. Monkey Goes To Heaven
08. Mr. Grieves
09. Crackity Jones
10. La La Love You
11. No. 13 Baby
12. There Goes My Gun
13. Hey
14. Silver
15. Gouge Away

Mastered by Rob LoVerde at Mobile Fidelity Sound Lab, Sebastopol, CA.

foobar2000 1.5.2 / Dynamic Range Meter 1.1.1

––––––––––––––––––––––––––––––––––––––––
Analyzed: THE PIXIES / Doolittle
––––––––––––––––––––––––––––––––––––––––

DR Peak RMS Duration Track
––––––––––––––––––––––––––––––––––––––––
DR11 -4.17 dB -17.28 dB 2:52 01-Debaser
DR11 -5.08 dB -19.59 dB 1:55 02-Tame
DR11 -4.81 dB -17.87 dB 2:06 03-Wave Of Mutilation
DR11 -4.61 dB -18.34 dB 2:36 04-I Bleed
DR12 -4.92 dB -18.41 dB 3:22 05-Here Comes Your Man
DR11 -4.28 dB -17.83 dB 2:20 06-Dead
DR12 -5.20 dB -19.81 dB 2:55 07-Monkey Goes To Heaven
DR12 -4.45 dB -19.85 dB 2:05 08-Mr. Grieves
DR10 -4.71 dB -16.70 dB 1:24 09-Crackity Jones
DR12 -4.82 dB -18.20 dB 2:44 10-La La Love You
DR12 -4.16 dB -18.31 dB 3:51 11-No. 13 Baby
DR11 -4.06 dB -17.94 dB 1:50 12-There Goes My Gun
DR12 -4.55 dB -20.53 dB 3:31 13-Hey
DR14 -4.79 dB -20.54 dB 2:25 14-Silver
DR11 -4.80 dB -17.97 dB 2:48 15-Gouge Away
––––––––––––––––––––––––––––––––––––––––

Number of tracks: 15
Official DR value: DR12

Samplerate: 2822400 Hz / PCM Samplerate: 176400 Hz
Channels: 2
Bits per sample: 1
Bitrate: 5645 kbps
Codec: DSD64


Thanks to PS³SACD!
Uncompressed SACD ISO size > 1,55 GB
>