Pixies - Bossanova (1990) [MFSL 2008] PS3 ISO + Hi-Res FLAC

Posted By: HDAtall
Pixies - Bossanova (1990) [MFSL 2008] PS3 ISO + Hi-Res FLAC

Pixies - Bossanova (1990) [MFSL 2008]
PS3 Rip | SACD ISO | DSD64 2.0 > 1-bit/2.8224 MHz | 40:12 minutes | Scans included | 1,27 GB
or FLAC (converted with foobar2000 to tracks) 24bit/96 kHz | Full Scans included | 1002 MB
Mobile Fidelity Sound Lab # UDSACD 2035

Bossanova is the third studio album by American rock band Pixies. The album's sound, inspired by surf rock and space rock, complements its lyrical focus on outer space, which references subjects such as aliens and unidentified flying objects. Rolling Stone gave Bossanova three out of five stars. In comparison to the previous albums, reviewer Moira McCormick described Bossanova as "more of a straight-ahead rock album—by the Pixies' standards, meaning it's still safely off the mainstream".

When Bossanova arrived in 1990, it reflected the exhaustion the Pixies felt after Doolittle's enormous success: For the first time, the band seems to be running out of ideas. Tellingly, Kim Deal contributes no songs, having formed the Breeders to give her work an outlet; that summer, their debut Pod won a warmer response than Bossanova received. Arguably the Pixies' weakest album – though Francis has said it's his favorite – most of it finds the band in fine form. Gil Norton's spacious, reverb-heavy production makes the Pixies sound like a Martian bar band, which fits the cover of the Surftones' "Cecilia Ann" and the glorious, shimmering closer "Havalina" perfectly. On the theremin-driven "Velouria", science fiction imagery displaces Francis' penchant for fetishistic lyrics; next to the token kinky song "Down to the Well"’s tired sound, it's a refreshing change. The similarly cryptic "All Over the World" and alien abduction tale "The Happening" add to the sci-fi feel. Quirky pop songs like "Allison", a tribute to jazz cool-cat Mose Allison, and "Dig for Fire", Francis' self-professed Talking Heads homage, heighten Bossanova's playful, slightly off-kilter vibe, but rockers like "Hang Wire" and "Blown Away", fall flat. However, "Rock Music" is one of the group's most fiery outbursts, and "Is She Weird"'s chugging grind and sexy, funny lyrics make it a classic Pixies song. The band was so consistently amazing on their previous albums that when they released a slightly weaker one, critics and fans alike judged them too harshly. But on Bossanova's strongest moments, the Pixies explored their softer side and found different uses for their extreme dynamics. Like a straight-A student who suddenly receives a B+, Bossanova might have been a disappointment initially, but its (small) failings emphasize the strengths of the rest of the Pixies' work.

Tracklist:

01. Cecilia Ann
02. Rock Music
03. Velouria
04. Allison
05. Is She Weird
06. Ana
07. All Over The World
08. Dig For Fire
09. Down To The Well
10. The Happening
11. Blown Away
12. Hang Wire
13. Stormy Weather
14. Havalina

Mastered by Rob LoVerde at Mobile Fidelity Sound Lab, Sebastopol, CA.

foobar2000 1.5.2 / Dynamic Range Meter 1.1.1

––––––––––––––––––––––––––––––––––––––––
Analyzed: Pixies / Bossanova
––––––––––––––––––––––––––––––––––––––––

DR Peak RMS Duration Track
––––––––––––––––––––––––––––––––––––––––
DR12 -5.80 dB -20.14 dB 2:07 01-Cecilia Ann
DR12 -6.28 dB -19.91 dB 1:53 02-Rock Music
DR12 -6.06 dB -20.54 dB 3:43 03-Velouria
DR11 -5.51 dB -18.80 dB 1:19 04-Allison
DR12 -6.21 dB -20.47 dB 3:03 05-Is She Weird
DR12 -6.04 dB -20.83 dB 2:11 06-Ana
DR13 -6.16 dB -20.98 dB 5:33 07-All Over The World
DR13 -5.96 dB -21.72 dB 3:04 08-Dig For Fire
DR12 -6.18 dB -21.11 dB 2:31 09-Down To The Well
DR14 -5.89 dB -21.70 dB 4:22 10-The Happening
DR13 -6.00 dB -20.36 dB 2:22 11-Blown Away
DR13 -5.93 dB -20.17 dB 2:02 12-Hang Wire
DR12 -5.93 dB -19.63 dB 3:29 13-Stormy Weather
DR12 -6.04 dB -20.16 dB 2:35 14-Havalina
––––––––––––––––––––––––––––––––––––––––

Number of tracks: 14
Official DR value: DR12

Samplerate: 2822400 Hz / PCM Samplerate: 176400 Hz
Channels: 2
Bits per sample: 1
Bitrate: 5645 kbps
Codec: DSD64


Thanks to PS³SACD!
Uncompressed SACD ISO size > 1,61 GB
>