Tags
Language
Tags
July 2024
Su Mo Tu We Th Fr Sa
30 1 2 3 4 5 6
7 8 9 10 11 12 13
14 15 16 17 18 19 20
21 22 23 24 25 26 27
28 29 30 31 1 2 3

Marta Gomez - Cantos De Agua Dulce: Songs Of The Sweet Water (2004) [Official Digital Download 24bit/96kHz]

Posted By: HDV
Marta Gomez - Cantos De Agua Dulce: Songs Of The Sweet Water (2004) [Official Digital Download 24bit/96kHz]

Marta Gómez - Cantos De Agua Dulce: Songs Of The Sweet Water (2004)
FLAC (tracks) 24 bit/96 kHz | Time - 53:35 minutes | 1,04 GB
Studio Master, Official Digital Download | Artwork: Digital Booklet

This is the record that brought this Colombian-born songstress widespread critical acclaim. "Cantos De Agua Dulce" charted on Billboard's Top 10 Jazz Albums tally, the CMJ New World Chart and the World Music Europe Chart. On the strength of this recording, Gomez was nominated for Best Latin Jazz Vocalist of 2005 by Billboard's Latin Music Awards and was described by the magazine's reviewer as "the essence of Latin cool".

With her velvety voice and jazz infused arrangements, Marta Gomez takes South American indigenous folk music into a hip new realm. Marta not only traverses a whole range of rhythms based on South American folklore, she also writes melodies and refrains that translate across all languages. "With an exquisite voice, Marta manages to sound like a pure folk-traditionalist and jazzy pop adventurer at the same time". – The Boston Herald

Tracklist:

01 - La Finca
02 - Eso Pido Yo
03 - Seis
04 - Cancin De Cuna
05 - Bolero
06 - La Flor
07 - Canta
08 - Receta
09 - El Pueblo
10 - Tonada De La Luna Llena
11 - El Hormigueo
12 - Confesin
13 - Djalo Ir
14 - Aguellas Pequenas Cosas

Produced by Julio Santillan & David Chesky.
Recorded on May 24-26, 2004 at Saint Peters Church, NYC.
Engineered by Barry Wolifson. Edited & Mastered by Nicholas Prout.

Musicians:
Marta Gómez - vocals
Julio Santillan - arranger, guitar, background vocals
Fernando Brandao - flute
Evan Harlan - accordion
Fernando Huergo - bass guitar
Alejandra Ortiz - percussion, background vocals
Franco Pinna - drums, percussion

Analyzed: Marta Gomez / Cantos De Agua Dulce
––––––––––––––––––––––––––––––––––––––––

DR Peak RMS Duration Track
––––––––––––––––––––––––––––––––––––––––
DR16 -0.06 dB -19.01 dB 4:57 01-La Finca
DR14 -4.99 dB -24.37 dB 4:32 02-Eso Pido Yo
DR17 -0.10 dB -20.40 dB 5:22 03-Seis
DR13 -1.13 dB -18.58 dB 3:17 04-Cancin De Cuna
DR12 -4.07 dB -22.13 dB 3:38 05-Bolero
DR15 -0.30 dB -21.26 dB 3:15 06-La Flor
DR15 -0.10 dB -19.67 dB 4:00 07-Canta
DR17 -0.10 dB -21.99 dB 3:33 08-Receta
DR16 -0.10 dB -21.71 dB 3:14 09-El Pueblo
DR17 -0.10 dB -21.32 dB 3:13 10-Tonada De La Luna Llena
DR17 -0.02 dB -19.90 dB 3:43 11-El Hormigueo
DR14 -0.51 dB -20.01 dB 4:21 12-Confesin
DR14 -0.03 dB -17.19 dB 4:16 13-Djalo Ir
DR12 -5.62 dB -22.89 dB 2:14 14-Aguellas Pequenas Cosas
––––––––––––––––––––––––––––––––––––––––

Number of tracks: 14
Official DR value: DR15

Samplerate: 96000 Hz
Channels: 2
Bits per sample: 24
Bitrate: 2530 kbps
Codec: FLAC
================================================================================


Thanks to the Original customer!