Tags
Language
Tags
February 2024
Su Mo Tu We Th Fr Sa
28 29 30 31 1 2 3
4 5 6 7 8 9 10
11 12 13 14 15 16 17
18 19 20 21 22 23 24
25 26 27 28 29 1 2
Attention❗ To save your time, in order to download anything on this site, you must be registered 👉 HERE. If you do not have a registration yet, it is better to do it right away. ✌

( • )( • ) ( ͡⚆ ͜ʖ ͡⚆ ) (‿ˠ‿)
SpicyMags.xyz

Choir of St. John's College, Cambridge & Andrew Nethsingha - Advent Live, Vol. 2 (2020) [Official Digital Download]

Posted By: delpotro
Choir of St. John's College, Cambridge & Andrew Nethsingha - Advent Live, Vol. 2 (2020) [Official Digital Download]

Choir of St. John's College, Cambridge & Andrew Nethsingha - Advent Live, Vol. 2 (2020)
FLAC (tracks) 24-bit/44,1 kHz | Front Cover | Time - 62:57 minutes | 573 MB
Classical, Sacred, Choral | Label: Signum Classics, Official Digital Download

The sublime Choir of St. John’s College, Cambridge return with the second voluume in their Advent series – celebrating the advent season from within the Christian tradition; a season celebrated since at least the sixth century.

his splendid live recording, from within the Chapel of St. John’s College itself, features Christmas favourites, including Britten’s Deo Gracias from A Ceremony of Carols as well as gorgeous performances of lesser known works by modern composers including Jonathan Dove, Arvo Pärt and Paul Manz.

“Top choice” – Gramophone’s The Christmas List

“The men-and-boys of the choir deliver energetic performances both times…This is a fresh, stimulating holiday season program that should have a life far beyond the year 2020 when it was released” – All Music

“The central elements of success sound as good as ever: the chapel acoustic, beautifully captured by the recording engineers, the sensational sound of the organ, Nethsingha’s rock solid direction, and the solidity of the choral sound, beautiful yet keenly focused and utterly compelling.” – MusicWeb International

Tracklist:
01. I am the Day (Live)
02. Bogoroditse Dyevo (Live)
03. A Spotless Rose (Live)
04. A Prayer to St. John the Baptist (Live)
05. Vox clara ecce intonat (Live)
06. The last and greatest Herald (Live)
07. O Wisdom (Live)
08. O Adonai (Live)
09. A Tender Shoot (Live)
10. Es ist ein Ros entsprungen (Live)
11. Out of Your Sleep (Live)
12. Hark, the Glad Sound (Live)
13. There is No Rose (Live)
14. O Root of Jesse (Live)
15. O Key of David (Live)
16. Ach so lass von mir dich finden (Live)
17. E'en So, Lord Jesus, Quickly Come (Live)
18. The Linden Tree (Live)
19. A Ceremony of Carols, Op. 28: X. Deo gracias (Live)
20. Einklang (Live)
21. Lo! He Comes with Clouds Descending (Live)
22. Nun komm, der Heiden Heiland, BWV 661 (Live)

foobar2000 1.4.1 / Dynamic Range Meter 1.1.1
log date: 2023-11-26 12:21:58

––––––––––––––––––––––––––––––––––––––––
Analyzed: Andrew Nethsingha / Advent Live, Vol. 2 (1-21)
James Anderson-Besant / Advent Live, Vol. 2 (22)
––––––––––––––––––––––––––––––––––––––––

DR Peak RMS Duration Track
––––––––––––––––––––––––––––––––––––––––
DR15 -0.29 dB -27.87 dB 6:33 01-I am the Day (Live)
DR12 -4.39 dB -22.94 dB 1:17 02-Bogoroditse Dyevo (Live)
DR16 -3.69 dB -26.31 dB 3:30 03-A Spotless Rose (Live)
DR13 -0.30 dB -20.46 dB 4:08 04-A Prayer to St. John the Baptist (Live)
DR13 -0.30 dB -18.98 dB 4:53 05-Vox clara ecce intonat (Live)
DR13 -0.30 dB -18.08 dB 5:49 06-The last and greatest Herald (Live)
DR10 -15.83 dB -32.85 dB 0:52 07-O Wisdom (Live)
DR10 -17.25 dB -32.36 dB 0:56 08-O Adonai (Live)
DR13 -7.93 dB -27.49 dB 2:01 09-A Tender Shoot (Live)
DR11 -14.94 dB -30.04 dB 1:23 10-Es ist ein Ros entsprungen (Live)
DR13 -0.29 dB -19.24 dB 2:49 11-Out of Your Sleep (Live)
DR13 -0.30 dB -18.18 dB 5:28 12-Hark, the Glad Sound (Live)
DR12 -2.70 dB -21.07 dB 1:52 13-There is No Rose (Live)
DR12 -18.77 dB -35.01 dB 0:51 14-O Root of Jesse (Live)
DR10 -17.44 dB -33.22 dB 0:58 15-O Key of David (Live)
DR14 -7.32 dB -27.16 dB 3:22 16-Ach so lass von mir dich finden (Live)
DR14 -4.75 dB -25.20 dB 2:48 17-E'en So, Lord Jesus, Quickly Come (Live)
DR14 -2.83 dB -22.67 dB 1:53 18-The Linden Tree (Live)
DR11 -0.30 dB -19.73 dB 1:14 19-A Ceremony of Carols, Op. 28: X. Deo gracias (Live)
DR12 -5.75 dB -24.48 dB 1:59 20-Einklang (Live)
DR10 -0.29 dB -13.35 dB 5:09 21-Lo! He Comes with Clouds Descending (Live)
DR10 -8.28 dB -22.17 dB 3:11 22-Nun komm, der Heiden Heiland, BWV 661 (Live)
––––––––––––––––––––––––––––––––––––––––

Number of tracks: 22
Official DR value: DR12

Samplerate: 44100 Hz
Channels: 2
Bits per sample: 24
Bitrate: 1317 kbps
Codec: FLAC
================================================================================


Thanks to the Original customer!