Tags
Language
Tags
March 2023
Su Mo Tu We Th Fr Sa
26 27 28 1 2 3 4
5 6 7 8 9 10 11
12 13 14 15 16 17 18
19 20 21 22 23 24 25
26 27 28 29 30 31 1

Brainbox - Singles & B-sides 1969-1971 (2023) [Official Digital Download 24/96]

Posted By: delpotro
Brainbox - Singles & B-sides 1969-1971 (2023) [Official Digital Download 24/96]

Brainbox - Singles & B-sides 1969-1971 (2023)
FLAC (tracks) 24-bit/96 kHz | Front Cover | Time - 46:01 minutes | 912 MB
Progressive Rock, Blues Rock | Label: Universal Music, Official Digital Download

Brainbox is a Dutch rock group from the late 1960s/early 1970s. The band was founded in Amsterdam by guitarist Jan Akkerma , drummer Pierre van der Linden and singer Kazimir Lux (Kaz). Their debut single was "Down Man", which established their progressive blues sound. They had several hit singles in the Netherlands, including "Down Man". "Doomsday Train", "Summertime", "To You", "Virgin" and "The Smile".

In late 1969, soon after they released their first album, Akkerman left to join Focus, later recruiting van der Linden as well, then Brainbox bass player Cyril Havermans. They were replaced by guitarists Herman Meyer and Rudie de Queljoe and drummer Frans Smit. Meyer was later replaced by John Schuursma. After Kaz Lux left Brainbox in 1971, popularity waned and they split up in 1972. Lux reassembled the band in 2004 (though without Akkerman) and they performed in the Netherlands. In 2010 and 2011, the band performed again and recorded a new studio album, The 3rd Flood.

Tracklist:
01. Down Man
02. Woman's Gone
03. Amsterdam, The First Days
04. To You
05. So Helpless
06. Between Alpha And Omega
07. Cruel Train
08. Good Morning, Day
09. Doomsday Train
10. The Smile (Old Friends Have A Right To)
11. The Flight
12. Virgin
13. Mobilea
14. If You Could Only Feel It

foobar2000 1.4.1 / Dynamic Range Meter 1.1.1
log date: 2023-03-19 11:53:22

––––––––––––––––––––––––––––––––––––––––
Analyzed: Brainbox / Singles & B-sides 1969-1971
––––––––––––––––––––––––––––––––––––––––

DR Peak RMS Duration Track
––––––––––––––––––––––––––––––––––––––––
DR7 -0.25 dB -8.64 dB 2:35 01-Down Man
DR8 -0.24 dB -9.98 dB 4:09 02-Woman's Gone
DR8 -0.21 dB -8.98 dB 3:09 03-Amsterdam, The First Days
DR7 -0.23 dB -9.09 dB 3:27 04-To You
DR7 -0.22 dB -8.45 dB 2:36 05-So Helpless
DR7 -0.20 dB -8.84 dB 2:26 06-Between Alpha And Omega
DR7 -0.26 dB -9.27 dB 2:30 07-Cruel Train
DR7 -0.22 dB -8.61 dB 3:10 08-Good Morning, Day
DR8 -0.24 dB -9.11 dB 2:52 09-Doomsday Train
DR8 -0.20 dB -9.65 dB 3:06 10-The Smile (Old Friends Have A Right To)
DR8 -0.23 dB -8.92 dB 3:24 11-The Flight
DR6 -0.25 dB -7.37 dB 3:40 12-Virgin
DR6 -0.20 dB -8.00 dB 5:37 13-Mobilea
DR9 -0.27 dB -9.72 dB 3:21 14-If You Could Only Feel It
––––––––––––––––––––––––––––––––––––––––

Number of tracks: 14
Official DR value: DR7

Samplerate: 96000 Hz
Channels: 2
Bits per sample: 24
Bitrate: 2788 kbps
Codec: FLAC
================================================================================


Thanks to the Original customer!