Tags
Language
Tags
March 2024
Su Mo Tu We Th Fr Sa
25 26 27 28 29 1 2
3 4 5 6 7 8 9
10 11 12 13 14 15 16
17 18 19 20 21 22 23
24 25 26 27 28 29 30
31 1 2 3 4 5 6

Benny Waters ‎- Live At The Pawnshop (1999) [Reissue 2000] SACD ISO + Hi-Res FLAC

Posted By: HDAtall
Benny Waters ‎- Live At The Pawnshop (1999) [Reissue 2000] SACD ISO + Hi-Res FLAC

Benny Waters ‎- Live At The Pawnshop (1999) [Reissue 2000]
SACD Rip | SACD ISO | DSD64 2.0 > 1-bit/2.8224 MHz | 73:59 minutes | Front/Rear Covers | 2,35 GB
or FLAC (converted with foobar2000 to tracks) 24bit/88,2 kHz | Front/Rear Covers | 1,59 GB

In April 1976, at the age of 74, the legendary swing saxophonist Benny Waters made a momentous appearance at the internationally famous jazz-blub Stampen often known as “The Pawnshop”, in Stockholm. This album is a memento of this concert and a wonderful musician. Worthy of note is the fact that the pianist on this recording is the late, great and unfortunately the most “underrecorded” Swedish swing piano player Björn Milder – yes, Joakim Milders father! – who was considered by many visiting musicians to be “world class”. And they should know!

A superb tenor saxophonist and a fine clarinetest and alto player, Benny Water's career spans the growth and development of jazz and American popular music. His huge tone and swaggering tenor style were honored in the swing era, as was his darting clarinet and tart alto approaches. Waters played piano and reed instruments as a child, then worked with Charlie Miller from 1918 to 1921. He studied at the New England Conservatory and later became a teacher. Waters recorded with King Oliver and Clarence Williams in the '20s and '30s, while writing arrangements for Charlie Johnson. For a few months, he also played in Roy Milton's r&b orchestra. Waters worked with traditional jazz leader Jimmy Archey in 1949, and opted to stay in Europe during a group tour. He settled in Paris and remained there until the end of the '60s. He was a regular at the club La Cigale. Waters was a festival favorite throughout Europe in the '70s and '80s, and paid some visits to New York in the '80s.

Tracklist:

01. Out Of Nowhere
02. Some Of These Days
03. Summertime
04. Ziggin' And A Zaggin'
05. Cherokee
06. Sophisticated Lady
07. Dark Eyes
08. I Can't Get Started
09. Indiana
10. Blues Amore

Produced by Tomas Örnberg. Engineered by Carl-Gunnar Franzén & Jan-Eric Persson.
Recorded on April 27, 1976 at "The Pawnshop", Stampen, Sweden.
Mastered by Jan-Eric Persson & Tony Bridge.

Personnel
Benny Waters - Alto Saxophone, Tenor Saxophone, Sopranino Saxophone, Clarinet
Björn Milder - Piano
Göran Stachewsky - Guitar
Göran Lind - Double Bass
Krister Ohlsson - Drums

foobar2000 1.3.17 / Dynamic Range Meter 1.1.1

––––––––––––––––––––––––––––––––––––––––
Analyzed: Benny Waters featuring: Björn Milder / Benny Waters "Live at the Pawnshop"
––––––––––––––––––––––––––––––––––––––––

DR Peak RMS Duration Track
––––––––––––––––––––––––––––––––––––––––
DR14 -7.40 dB -24.51 dB 4:46 01-Out Of Nowhere
DR13 -6.62 dB -23.67 dB 8:40 02-Some Of These Days
DR15 -9.84 dB -29.41 dB 7:00 03-Summertime
DR15 -7.14 dB -24.33 dB 5:51 04-Ziggin' And A Zaggin'
DR15 -7.59 dB -25.24 dB 7:20 05-Cherokee
DR16 -8.79 dB -28.84 dB 7:33 06-Sophisticated Lady
DR13 -5.59 dB -23.03 dB 8:30 07-Dark Eyes
DR15 -9.04 dB -28.64 dB 5:08 08-I Can't Get Started
DR14 -6.03 dB -23.22 dB 9:18 09-Indiana
DR15 -5.92 dB -25.79 dB 9:52 10-Blues Amore
––––––––––––––––––––––––––––––––––––––––

Number of tracks: 10
Official DR value: DR14

Samplerate: 2822400 Hz / PCM Samplerate: 88200 Hz
Channels: 2
Bits per sample: 1
Bitrate: 5645 kbps
Codec: DSD64


Thanks to jazzyman!
Uncompressed SACD ISO size > 3,06 GB
>