Aerosmith - Just Push Play (2001) PS3 ISO + Hi-Res FLAC

Posted By: HDAtall
Aerosmith - Just Push Play (2001) PS3 ISO + Hi-Res FLAC

Aerosmith - Just Push Play (2001)
PS3 Rip | SACD ISO | DSD64 2.0 > 1-bit/2.8224 MHz | 50:42 minutes | Scans included | 1,6 GB
or FLAC(converted with foobar2000 to tracks) 24bit/88,2 kHz | Full Scans included | 1,12 GB

Just Push Play is the 13th studio album by American rock band Aerosmith. The album was co-produced by song collaborators Marti Frederiksen and Mark Hudson. The album's first single, "Jaded", became a Top 10 hit in the U.S. and around the world. As a result, Just Push Play was certified platinum within a month of its release.

Give Aerosmith credit for not only realizing something was wrong after Nine Lives relatively flat-lined, but deciding to do something about it. Ditching the outside producers who initially liberated but eventually straitjacketed them, Steve Tyler and Joe Perry seized control of the boards, working with the assistance of Mark Hudson and Marti Frederiksen. (Forever the Stones fanatics, Tyler and Perry dubbed this crew the Boneyard Boys, just like how Mick-n-Keef are the Glimmer Twins.) So, this isn't really a full-fledged band affair and Hudson and Frederiksen's fingerprints are all over the place, but that doesn't matter since the end result is tighter, savvier, and better than anything since Pump. It's still far from perfect, however, since it suffers from a surfeit of memorable material, and the group members' steadfast refusal to act their age results in a couple of embarrassing slips into stodginess (the "f*ckin' A" chorus on the title track, a song improbably titled "Trip Hoppin'," or the ludicrous "Avant Garden"). These mean that the record doesn't come close to matching the twin comebacks of Permanent Vacation and Pump, but it's a sleek, classicist hard rock record that sounds good – better than Aerosmith has sounded in nearly a decade, as a matter of fact, particularly when the group gets a hook as tuneful as that of "Jaded." Aerosmith sounds good enough on Just Push Play that it almost makes you forgive the Heavy Metal refugee on the front cover, a sexy robot illustration that looks far more out of date than the music sounds.

Tracklist:

01 - Beyond Beautiful
02 - Just Push Play
03 - Jaded
04 - Fly Away From Here
05 - Trip Hoppin'
06 - Sunshine
07 - Under My Skin
08 - Luv Lies
09 - Outta Your Head
10 - Drop Dead Gorgeous
11 - Light Inside
12 - Avant Garden

foobar2000 1.5.2 / Dynamic Range Meter 1.1.1

––––––––––––––––––––––––––––––––––––––––
Analyzed: Aerosmith / Just Push Play
––––––––––––––––––––––––––––––––––––––––

DR Peak RMS Duration Track
––––––––––––––––––––––––––––––––––––––––
DR11 -5.10 dB -18.47 dB 4:45 01-Beyond Beautiful
DR12 -3.95 dB -18.74 dB 3:51 02-Just Push Play
DR10 -5.48 dB -17.01 dB 3:34 03-Jaded
DR10 -6.14 dB -18.42 dB 5:02 04-Fly Away From Here
DR11 -4.64 dB -17.24 dB 4:27 05-Trip Hoppin'
DR11 -4.64 dB -16.97 dB 3:37 06-Sunshine
DR11 -5.51 dB -17.76 dB 3:46 07-Under My Skin
DR10 -5.13 dB -17.45 dB 4:26 08-Luv Lies
DR10 -5.03 dB -16.68 dB 3:21 09-Outta Your Head
DR10 -4.79 dB -17.53 dB 3:43 10-Drop Dead Gorgeous
DR10 -6.00 dB -17.61 dB 3:35 11-Light Inside
DR11 -4.26 dB -18.85 dB 6:36 12-Avant Garden
––––––––––––––––––––––––––––––––––––––––

Number of tracks: 12
Official DR value: DR11

Samplerate: 2822400 Hz / PCM Samplerate: 88200 Hz
Channels: 2
Bits per sample: 24
Bitrate: 5645 kbps
Codec: DSD64


Thanks to PS³SACD!
Uncompressed SACD ISO size > 2,05 GB
>