Inbal Segev & Juho Pohjonen - Works for Cello and Piano by Chopin, Schumann and Grieg (2018) [Official Digital Download]

Posted By: SERTiL
Inbal Segev & Juho Pohjonen - Works for Cello and Piano by Chopin, Schumann and Grieg (2018) [Official Digital Download]

Inbal Segev & Juho Pohjonen - Works for Cello and Piano by Chopin, Schumann and Grieg (2018)
FLAC (tracks) 24-bit/44.1 kHz | Time - 70:07 minutes | 608 MB
Studio Master, Official Digital Download | Artwork: Front Cover

Cellist Inbal Segev debuts on AVIE, with pianist Juho Pohjonen, in the romantic repertoire of Chopin, Grieg and Schumann.

Cellist Inbal Segev's debut release for AVIE features the lush and romantic sonatas by Chopin and Grieg, and the Fantasiestücke by Robert Schumann. She is joined by Finnish pianist Juho Pohjonen, a fitting partner for the pianistic Chopin and the virtuosic Grieg. In Schumann's own transcription of his "Fantasy Pieces," originally for clarinet, the lyrical quality shines through on Inbal's 1673 Ruggieri cello.

Inbal Segev reaches thousands of people across continents through her influential YouTube video masterclass series Musings with Inbal, teaching core repertoire, cello technique and new works. Her many honours include top prizes at the Pablo Casals, Paulo and Washington International Competitions. She began playing cello in Israel at five and at 16 was invited by Isaac Stern to continue her studies in the US. She holds degrees from The Juilliard School and Yale University.

"first class…richly inspired…very moving indeed" (Gramophone Magazine)

"Her playing is characterised by a strong and warm tone…delivered with impressive fluency and style." (The Strad)

"This young artist is, beyond doubt, a star in the making-her tone golden and unstrained in the high positions, her phrasing that of a born musician" (Musical Opinion)

Tracklist:
1. Cello Sonata in G Minor, Op. 65: I. Allegro moderato 15:23
2. Cello Sonata in G Minor, Op. 65 : II. Scherzo 05:10
3. Cello Sonata in G Minor, Op. 65 : III. Largo 03:43
4. Cello Sonata in G Minor, Op. 65: IV. Finale: Allegro 06:22
5. Drei Fantasiestücke, Op. 73 : I. Zart und mit Ausdruck 03:14
6. Drei Fantasiestücke, Op. 73 : II. Lebhaft, licht 03:29
7. Drei Fantasiestücke, Op. 73 : III. Rasch und mit Feuer 04:24
8. Cello Sonata in A Minor, Op. 36 : I. Allegro agitato 09:52
9. Cello Sonata in A Minor, Op. 36 : II. Andante molto tranquillo 06:44
10. Cello Sonata in A Minor, Op. 36 : III. Allegro molto e marcato 11:46

Personnel:
Inbal Segev, cello
Juho Pohjonen, piano

foobar2000 1.3.7 / Dynamic Range Meter 1.1.1
log date: 2018-07-20 12:54:48

––––––––––––––––––––––––––––––––––––––––
Analyzed: Inbal Segev & Juho Pohjonen / Works for Cello and Piano by Chopin, Schumann and Grieg
––––––––––––––––––––––––––––––––––––––––

DR Peak RMS Duration Track
––––––––––––––––––––––––––––––––––––––––
DR14 -1.63 dB -20.06 dB 15:24 01-I. Allegro moderato
DR14 -1.82 dB -21.20 dB 5:11 02-II. Scherzo
DR11 -11.79 dB -27.80 dB 3:43 03-III. Largo
DR14 -1.22 dB -19.77 dB 6:23 04-IV. Finale: Allegro
DR12 -7.54 dB -23.57 dB 3:15 05-I. Zart und mit Ausdruck
DR11 -6.93 dB -22.71 dB 3:30 06-II. Lebhaft, licht
DR12 -3.09 dB -19.98 dB 4:24 07-III. Rasch und mit Feuer
DR14 -0.21 dB -20.19 dB 9:52 08-I. Allegro agitato
DR14 -1.65 dB -21.88 dB 6:45 09-II. Andante molto tranquillo
DR14 -1.10 dB -19.83 dB 11:47 10-III. Allegro molto e marcato
––––––––––––––––––––––––––––––––––––––––

Number of tracks: 10
Official DR value: DR13

Samplerate: 44100 Hz
Channels: 2
Bits per sample: 24
Bitrate: 1217 kbps
Codec: FLAC
================================================================================


Thanks to the Original customer.