Tags
Language
Tags
July 2024
Su Mo Tu We Th Fr Sa
30 1 2 3 4 5 6
7 8 9 10 11 12 13
14 15 16 17 18 19 20
21 22 23 24 25 26 27
28 29 30 31 1 2 3

Van Morrison - The Healing Game (Remastered) (1997/2020) [Official Digital Download 24/96]

Posted By: SERTiL
Van Morrison - The Healing Game (Remastered) (1997/2020) [Official Digital Download 24/96]

Van Morrison - The Healing Game (Remastered) (1997/2020)
FLAC (tracks) 24-bit/96 kHz | Time - 58:08 minutes | 1.18 GB
Studio Master, Official Digital Download | Artwork: Front Cover

Originally released in 1997, The Healing Game marked an important transition for Van Morrison. After a period of crafting romantic ballads that found mainstream success, Van felt once more compelled to revisit the jazz and rhythm and blues-inspired style that influenced his earliest work. To achieve this, he assembled a killer new band that included saxophonist Pee Wee Ellis, Georgie Fame and bassist Alec Dankworth.

"Van Morrison never stopped recording during the 1990s, but for a little while it seemed as if he was disconnected from his muse. It wasn't so much his series of jazz cover albums – he'd return to this vein often in subsequent decades – but his songwriting that showed signs bitterness, particularly on 1995's Days Like This, where he seemed dismissive of the very notion of being a songwriter. In that light, it's hard not to see 1997's The Healing Game as a rejuvenation. Indeed, the album's very title suggests that Morrison is in the process of mending fences and reconnecting with a sense of joy, a process that began during his deep dive into Mose Allison and other bluesy jazz artists in the mid-'90s. Morrison retains that sense of swing on The Healing Game – he also retains keyboardist Georgie Fame, who would become a fixture on Morrison's albums over the next two decades – and it invigorates a set of songs that aren't necessarily all that different from what he's been writing as of late; he's still specializing in ballads, blues, and folk-rock colored by R&B. The subtle differences make a difference, though, whether they lie in the lyrics or, especially, the music, which feels warmer and more relaxed than the album's relatively recent companions. Morrison seems at home within the easy grooves of The Healing Game, and while that alone is enough to make the album worth revisits, it's also true the album boasts a sturdy selection of songs, highlighted by the meditative title track, the searching "Rough God Goes Riding," and the impassioned "Fire in the Belly." (Stephen Thomas Erlewine, AMG)

Tracklist:
1. Rough God Goes Riding (6:18)
2. Fire In the Belly (6:34)
3. This Weight (4:37)
4. Waiting Game (5:56)
5. Piper at the Gates of Dawn (3:53)
6. Burning Ground (5:38)
7. It Once Was My Life (5:11)
8. Sometimes We Cry (5:14)
9. If You Love Me (5:01)
10. The Healing Game (5:27)
11. At the End of the Day (4:30)

Personnel:
Van Morrison, vocals, acoustic guitar, harmonica
Haji Ahkba, flugelhorn
Robin Aspland, piano
Phil Coulter, piano on "Piper at the Gates of Dawn" and "At the End of the Day"
Alec Dankworth, double bass
Geoff Dunn, drums, percussion
Pee Wee Ellis, soprano and baritone saxophones, background vocals
Georgie Fame, Hammond organ, background vocals
Leo Green, tenor saxophone, background vocals
Matt Holland, trumpet, background vocals
Ronnie Johnson, electric guitar
Brian Kennedy, background vocals
Katie Kissoon, background vocals
Paddy Moloney, uilleann pipes, whistle on "Piper at the Gates of Dawn"
Peter O'Hanlon, dobro on "Piper at the Gates of Dawn" and "At the End of the Day"
Ralph Salmins, percussion
Nicky Scott, bass

Digitally remastered

foobar2000 1.3.7 / Dynamic Range Meter 1.1.1
log date: 2020-02-19 22:07:44

––––––––––––––––––––––––––––––––––––––––
Analyzed: Van Morrison / The Healing Game (Remastered)
––––––––––––––––––––––––––––––––––––––––

DR Peak RMS Duration Track
––––––––––––––––––––––––––––––––––––––––
DR10 -1.00 dB -13.35 dB 6:18 01-Rough God Goes Riding
DR10 -1.01 dB -13.35 dB 6:34 02-Fire In the Belly
DR12 -1.01 dB -15.62 dB 4:37 03-This Weight
DR12 -1.01 dB -14.89 dB 5:56 04-Waiting Game
DR14 -1.00 dB -18.08 dB 3:53 05-Piper at the Gates of Dawn
DR11 -1.00 dB -13.50 dB 5:38 06-Burning Ground
DR11 -1.01 dB -14.44 dB 5:11 07-It Once Was My Life
DR13 -1.00 dB -17.81 dB 5:14 08-Sometimes We Cry
DR13 -1.00 dB -15.40 dB 5:01 09-If You Love Me
DR10 -1.00 dB -14.42 dB 5:27 10-The Healing Game
DR12 -1.01 dB -15.26 dB 4:30 11-At the End of the Day
––––––––––––––––––––––––––––––––––––––––

Number of tracks: 11
Official DR value: DR12

Samplerate: 96000 Hz
Channels: 2
Bits per sample: 24
Bitrate: 2968 kbps
Codec: FLAC
================================================================================


Thanks to the Original customer.