The Kinks - The Kinks Are The Village Green Preservation Society (2018 Stereo Remaster) (1968/2018) [Official Digital Download]

Posted By: SERTiL
The Kinks - The Kinks Are The Village Green Preservation Society (2018 Stereo Remaster) (1968/2018) [Official Digital Download]

The Kinks - The Kinks Are The Village Green Preservation Society (2018 Stereo Remaster) (1968/2018)
FLAC (tracks) 24-bit/48 kHz | Time - 40:02 minutes | 527 MB
Studio Master, Official Digital Download | Artwork: Digital Booklet

BMG will be releasing a definitive version of the album many consider to be The Kinks’ singular masterpiece, The Kinks Are The Village Green Preservation Society, which celebrates its 50th anniversary.

The new version of the album, which will be made available in a variety of formats, features a gorgeous, previously unreleased track entitled “Time Song” that was mixed earlier this year by Ray Davies himself. Though it was never included on an official release, The Kinks did perform the song during their January 1973 concert at the Theatre Royal, Drury Lane in celebration of Great Britain’s acceptance into the Common Market.

“When we played a concert at Drury Lane in ’73 to “celebrate” us about to join what was called The Common Market, I decided to use the song as a warning that time was running out for the old British Empire,” Davies explains in the press release announcing the Village Green reissue. “This song was recorded a few weeks later but never made the final cut on the Preservation Act I album. Oddly enough, the song seems quite poignant and appropriate to release at this time in British history, and like Europe itself the track is a rough mix which still has to be finessed.”

“I think The Village Green Preservation Society is about the ending of a time personally for me in my life,” Davies said in a prepared statement. “In my imaginary village. It’s the end of our innocence, our youth. Some people are quite old but in the Village Green, you’re never allowed to grow up. I feel the project itself as part of a life cycle.”

Tracklist:
1. The Village Green Preservation Society (2018 Stereo Remaster) 02:51
2. Do You Remember Walter? (2018 Stereo Remaster) 02:29
3. Picture Book (2018 Stereo Remaster) 02:39
4. Johnny Thunder (2018 Stereo Remaster) 02:33
5. Last of the Steam-Powered Trains (2018 Stereo Remaster) 04:13
6. Big Sky (2018 Stereo Remaster) 02:52
7. Sitting By the Riverside (2018 Stereo Remaster) 02:26
8. Animal Farm (2018 Stereo Remaster) 03:01
9. Village Green (2018 Stereo Remaster) 02:11
10. Starstruck (2018 Stereo Remaster) 02:24
11. Phenomenal Cat (2018 Stereo Remaster) 02:41
12. All of My Friends Were There (2018 Stereo Remaster) 02:28
13. Wicked Annabella (2018 Stereo Remaster) 02:45
14. Monica (2018 Stereo Remaster) 02:18
15. People Take Pictures of Each Other (2018 Stereo Remaster) 02:11

Digitally remastered

foobar2000 1.3.7 / Dynamic Range Meter 1.1.1
log date: 2018-10-26 11:23:39

––––––––––––––––––––––––––––––––––––––––
Analyzed: The Kinks / The Kinks Are The Village Green Preservation Society (2018 Stereo Remaster)
––––––––––––––––––––––––––––––––––––––––

DR Peak RMS Duration Track
––––––––––––––––––––––––––––––––––––––––
DR8 -0.80 dB -10.96 dB 2:52 01-The Village Green Preservation Society (2018 Stereo Remaster)
DR9 -1.01 dB -11.88 dB 2:30 02-Do You Remember Walter? (2018 Stereo Remaster)
DR10 -1.19 dB -12.57 dB 2:39 03-Picture Book (2018 Stereo Remaster)
DR8 -0.80 dB -11.09 dB 2:33 04-Johnny Thunder (2018 Stereo Remaster)
DR8 -0.20 dB -10.82 dB 4:13 05-Last of the Steam-Powered Trains (2018 Stereo Remaster)
DR9 -0.20 dB -10.45 dB 2:53 06-Big Sky (2018 Stereo Remaster)
DR8 -0.20 dB -11.53 dB 2:26 07-Sitting By the Riverside (2018 Stereo Remaster)
DR9 -0.63 dB -11.12 dB 3:02 08-Animal Farm (2018 Stereo Remaster)
DR8 -1.66 dB -11.22 dB 2:11 09-Village Green (2018 Stereo Remaster)
DR8 -1.20 dB -10.59 dB 2:24 10-Starstruck (2018 Stereo Remaster)
DR10 -0.27 dB -14.59 dB 2:41 11-Phenomenal Cat (2018 Stereo Remaster)
DR9 -1.13 dB -11.69 dB 2:29 12-All of My Friends Were There (2018 Stereo Remaster)
DR7 -0.70 dB -9.45 dB 2:45 13-Wicked Annabella (2018 Stereo Remaster)
DR9 -0.20 dB -11.62 dB 2:19 14-Monica (2018 Stereo Remaster)
DR9 -0.82 dB -11.48 dB 2:11 15-People Take Pictures of Each Other (2018 Stereo Remaster)
––––––––––––––––––––––––––––––––––––––––

Number of tracks: 15
Official DR value: DR9

Samplerate: 48000 Hz
Channels: 2
Bits per sample: 24
Bitrate: 1760 kbps
Codec: FLAC
================================================================================


Thanks to the Original customer.