Tags
Language
Tags

Sade ‎– The Best Of Sade (1994/2016) [2LP,Reissue,DSD128]

Posted By: Discograf_man
Sade ‎– The Best Of Sade (1994/2016) [2LP,Reissue,DSD128]

Sade ‎– The Best Of Sade (1994/2016) [2LP,Reissue,DSD128]
Downtempo, Soul-Jazz | DSD128 (*.dsf, tracks), 1-bit/5.64 MHz
Run Time: 01:14:15 | 6.16 GB + 5% Recovery
Label: Epic | Release Year: 2016

Limited double vinyl LP pressing. The Best of Sade is the first greatest hits album by vocalist Sade Adu and her band. It was originally released in November 1994. By Epic Records. Sade formed in London in 1982. However, three of their members were originally from Kingston upon Hull in the East Riding of Yorkshire. Their music features elements of soul, R&B, jazz, soft rock, and funk. Sade's 1984 debut studio album Diamond Life, was a hit internationally, reaching # 1 in several countries and the Top Ten in the US where it has sold in excess of 4 million copies. In late 1985, Sade released their second studio album Promise, which peaked at No. 1 in both the UK and the US. It was certified double platinum in the UK, and quadruple platinum in the US. In 1986 Sade won a Grammy Award for Best New Artist. Their 2000 fifth studio album, Lovers Rock, won the Grammy Award for Best Pop Vocal Album. Sade's US certified sales so far stand at 23.5 million units according to Recording Industry Association of America (RIAAand have sold more than 75 million records worldwide to date. The band were ranked at #50 on VH1's list of the quot;100 greatest artists of all time.quot; Limited double vinyl LP pressing. The Best of Sade is the first greatest hits album by vocalist Sade Adu and her band. It was originally released in November 1994. By Epic Records. Sade formed in London in 1982. However, three of their members were originally from Kingston upon Hull in the East Riding of Yorkshire. Their music features elements of soul, R&B, jazz, soft rock, and funk. Sade's 1984 debut studio album Diamond Life, was a hit internationally, reaching # 1 in several countries and the Top Ten in the US where it has sold in excess of 4 million copies. In late 1985, Sade released their second studio album Promise, which peaked at No. 1 in both the UK and the US. It was certified double platinum in the UK, and quadruple platinum in the US. In 1986 Sade won a Grammy Award for Best New Artist. Their 2000 fifth studio album, Lovers Rock, won the Grammy Award for Best Pop Vocal Album. Sade's US certified sales so far stand at 23.5 million units according to Recording Industry Association of America (RIAAand have sold more than 75 million records worldwide to date. The band were ranked at #50 on VH1's list of the "100 greatest artists of all time."
Sade ‎– The Best Of Sade (1994/2016) [2LP,Reissue,DSD128]

Tracklist:

Side 1

A1 Your Love Is King 3:41
A2 Hang On To Your Love 4:29
A3 Smooth Operator 4:16
A4 Jezebel 5:23

Side 2
B5 The Sweetest Taboo 4:25
B6 Is It A Crime 6:16
B7 Never As Good As The First Time 3:58
B8 Love Is Stronger Than Pride 4:17

Side 3
C9 Paradise 3:36
C10 Nothing Can Come Between Us 3:52
C11 No Ordinary Love 7:19
C12 Like A Tattoo 3:36

Side 4
D13 Kiss Of Life 4:10
D14 Please Send Me Someone To Love 3:40
D15 Cherish The Day 6:17
D16 Pearls 4:35

Sade ‎– The Best Of Sade (1994/2016) [2LP,Reissue,DSD128]


Sade

Sade Adu – vocals
Stuart Matthewman – saxophone, guitar
Andrew Hale – keyboards
Paul S. Denman – bass

Additional musicians

Dave Early – drums, percussion
Martin Ditcham – percussion
Paul Cooke – drums
Terry Bailey – trumpet
Gordon Matthewman – trumpet

foobar2000 1.4 / Dynamic Range Meter 1.1.1
log date: 2019-11-06 16:10:30

––––––––––––––––––––––––––––––––––––––––
Analyzed: Sade / The Best Of Sade,(Epic - 88875180591,EU,Reissue 2016),(AT-160+KIV)
––––––––––––––––––––––––––––––––––––––––

DR Peak RMS Duration Track
––––––––––––––––––––––––––––––––––––––––
DR13 -6.95 dB -21.36 dB 3:44 ?-A1 Your Love Is King
DR13 -6.43 dB -21.17 dB 4:31 ?-A2 Hang On To Your Love
DR13 -6.33 dB -20.89 dB 4:18 ?-A3 Smooth Operator
DR12 -7.53 dB -23.20 dB 5:29 ?-A4 Jezebel
DR12 -6.38 dB -20.41 dB 4:26 ?-B5 The Sweetest Taboo
DR12 -5.98 dB -22.65 dB 6:17 ?-B6 Is It A Crime
DR12 -7.30 dB -20.87 dB 3:58 ?-B7 Never As Good As The First Time
DR11 -7.77 dB -21.32 dB 4:19 ?-B8 Love Is Stronger Than Pride
DR13 -4.89 dB -20.96 dB 3:38 ?-C9 Paradise
DR13 -6.03 dB -21.28 dB 3:52 ?-C10 Nothing Can Come Between Us
DR12 -6.79 dB -20.35 dB 7:19 ?-C11 No Ordinary Love
DR11 -8.00 dB -23.54 dB 3:38 ?-C12 Like A Tattoo
DR12 -7.62 dB -22.11 dB 4:12 ?-D13 Kiss Of Life
DR14 -7.21 dB -24.50 dB 3:41 ?-D14 Please Send Me Someone To Love
DR12 -7.33 dB -21.47 dB 6:19 ?-D15 Cherish The Day
DR11 -9.24 dB -24.97 dB 4:35 ?-D16 Pearls
––––––––––––––––––––––––––––––––––––––––

Number of tracks: 16
Official DR value: DR12

Samplerate: 5644800 Hz / PCM Samplerate: 88200 Hz
Channels: 2
Bits per sample: 1
Bitrate: 11290 kbps
Codec: DSD128
================================================================================

Thanks to the original releaser!